  0
SECTION
  2
HEADER
  9
$ACADVER
  1
AC1027
  9
$ACADMAINTVER
 70
     8
  9
$DWGCODEPAGE
  3
ANSI_932
  9
$REQUIREDVERSIONS
160
                 0
  9
$INSBASE
 10
0.0
 20
0.0
 30
0.0
  9
$EXTMIN
 10
0.0
 20
0.0
 30
0.0
  9
$EXTMAX
 10
281.9592391304345
 20
195.0
 30
0.0
  9
$LIMMIN
 10
0.0
 20
0.0
  9
$LIMMAX
 10
297.0
 20
210.0
  9
$ORTHOMODE
 70
     0
  9
$REGENMODE
 70
     1
  9
$FILLMODE
 70
     1
  9
$QTEXTMODE
 70
     0
  9
$MIRRTEXT
 70
     1
  9
$LTSCALE
 40
0.25
  9
$ATTMODE
 70
     1
  9
$TEXTSIZE
 40
5.0
  9
$TRACEWID
 40
0.05
  9
$TEXTSTYLE
  7
Standard
  9
$CLAYER
  8
0
  9
$CELTYPE
  6
ByLayer
  9
$CECOLOR
 62
   256
  9
$CELTSCALE
 40
1.0
  9
$DISPSILH
 70
     0
  9
$DIMSCALE
 40
1.0
  9
$DIMASZ
 40
4.0
  9
$DIMEXO
 40
2.0
  9
$DIMDLI
 40
10.0
  9
$DIMRND
 40
0.0
  9
$DIMDLE
 40
0.0
  9
$DIMEXE
 40
2.0
  9
$DIMTP
 40
0.0
  9
$DIMTM
 40
0.0
  9
$DIMTXT
 40
3.5
  9
$DIMCEN
 40
0.09
  9
$DIMTSZ
 40
0.0
  9
$DIMTOL
 70
     0
  9
$DIMLIM
 70
     0
  9
$DIMTIH
 70
     0
  9
$DIMTOH
 70
     0
  9
$DIMSE1
 70
     0
  9
$DIMSE2
 70
     0
  9
$DIMTAD
 70
     3
  9
$DIMZIN
 70
     8
  9
$DIMBLK
  1

  9
$DIMASO
 70
     1
  9
$DIMSHO
 70
     1
  9
$DIMPOST
  1

  9
$DIMAPOST
  1

  9
$DIMALT
 70
     0
  9
$DIMALTD
 70
     2
  9
$DIMALTF
 40
25.4
  9
$DIMLFAC
 40
1.0
  9
$DIMTOFL
 70
     1
  9
$DIMTVP
 40
0.7
  9
$DIMTIX
 70
     0
  9
$DIMSOXD
 70
     0
  9
$DIMSAH
 70
     0
  9
$DIMBLK1
  1

  9
$DIMBLK2
  1

  9
$DIMSTYLE
  2
Standard
  9
$DIMCLRD
 70
     0
  9
$DIMCLRE
 70
     0
  9
$DIMCLRT
 70
     0
  9
$DIMTFAC
 40
0.5
  9
$DIMGAP
 40
0.09
  9
$DIMJUST
 70
     0
  9
$DIMSD1
 70
     0
  9
$DIMSD2
 70
     0
  9
$DIMTOLJ
 70
     1
  9
$DIMTZIN
 70
     8
  9
$DIMALTZ
 70
     0
  9
$DIMALTTZ
 70
     0
  9
$DIMUPT
 70
     1
  9
$DIMDEC
 70
     2
  9
$DIMTDEC
 70
     4
  9
$DIMALTU
 70
     2
  9
$DIMALTTD
 70
     2
  9
$DIMTXSTY
  7
Standard
  9
$DIMAUNIT
 70
     0
  9
$DIMADEC
 70
     0
  9
$DIMALTRND
 40
0.0
  9
$DIMAZIN
 70
     0
  9
$DIMDSEP
 70
    46
  9
$DIMATFIT
 70
     2
  9
$DIMFRAC
 70
     0
  9
$DIMLDRBLK
  1

  9
$DIMLUNIT
 70
     2
  9
$DIMLWD
 70
    -2
  9
$DIMLWE
 70
    -2
  9
$DIMTMOVE
 70
     2
  9
$DIMFXL
 40
1.0
  9
$DIMFXLON
 70
     0
  9
$DIMJOGANG
 40
0.7853981633974483
  9
$DIMTFILL
 70
     0
  9
$DIMTFILLCLR
 70
     0
  9
$DIMARCSYM
 70
     0
  9
$DIMLTYPE
  6

  9
$DIMLTEX1
  6

  9
$DIMLTEX2
  6

  9
$DIMTXTDIRECTION
 70
     0
  9
$LUNITS
 70
     2
  9
$LUPREC
 70
     4
  9
$SKETCHINC
 40
0.1
  9
$FILLETRAD
 40
0.5
  9
$AUNITS
 70
     0
  9
$AUPREC
 70
     0
  9
$MENU
  1
.
  9
$ELEVATION
 40
0.0
  9
$PELEVATION
 40
0.0
  9
$THICKNESS
 40
0.0
  9
$LIMCHECK
 70
     0
  9
$CHAMFERA
 40
0.0
  9
$CHAMFERB
 40
0.0
  9
$CHAMFERC
 40
0.0
  9
$CHAMFERD
 40
0.0
  9
$SKPOLY
 70
     0
  9
$TDCREATE
 40
2457114.965104167
  9
$TDUCREATE
 40
2457114.590104167
  9
$TDUPDATE
 40
2457114.590107129
  9
$TDUUPDATE
 40
2457114.215107129
  9
$TDINDWG
 40
0.0000000116
  9
$TDUSRTIMER
 40
0.0000000116
  9
$USRTIMER
 70
     1
  9
$ANGBASE
 50
0.0
  9
$ANGDIR
 70
     0
  9
$PDMODE
 70
     0
  9
$PDSIZE
 40
0.0
  9
$PLINEWID
 40
0.0
  9
$SPLFRAME
 70
     0
  9
$SPLINETYPE
 70
     6
  9
$SPLINESEGS
 70
     8
  9
$HANDSEED
  5
26F
  9
$SURFTAB1
 70
     6
  9
$SURFTAB2
 70
     6
  9
$SURFTYPE
 70
     6
  9
$SURFU
 70
     6
  9
$SURFV
 70
     6
  9
$UCSBASE
  2

  9
$UCSNAME
  2

  9
$UCSORG
 10
0.0
 20
0.0
 30
0.0
  9
$UCSXDIR
 10
1.0
 20
0.0
 30
0.0
  9
$UCSYDIR
 10
0.0
 20
1.0
 30
0.0
  9
$UCSORTHOREF
  2

  9
$UCSORTHOVIEW
 70
     0
  9
$UCSORGTOP
 10
0.0
 20
0.0
 30
0.0
  9
$UCSORGBOTTOM
 10
0.0
 20
0.0
 30
0.0
  9
$UCSORGLEFT
 10
0.0
 20
0.0
 30
0.0
  9
$UCSORGRIGHT
 10
0.0
 20
0.0
 30
0.0
  9
$UCSORGFRONT
 10
0.0
 20
0.0
 30
0.0
  9
$UCSORGBACK
 10
0.0
 20
0.0
 30
0.0
  9
$PUCSBASE
  2

  9
$PUCSNAME
  2

  9
$PUCSORG
 10
0.0
 20
0.0
 30
0.0
  9
$PUCSXDIR
 10
1.0
 20
0.0
 30
0.0
  9
$PUCSYDIR
 10
0.0
 20
1.0
 30
0.0
  9
$PUCSORTHOREF
  2

  9
$PUCSORTHOVIEW
 70
     0
  9
$PUCSORGTOP
 10
0.0
 20
0.0
 30
0.0
  9
$PUCSORGBOTTOM
 10
0.0
 20
0.0
 30
0.0
  9
$PUCSORGLEFT
 10
0.0
 20
0.0
 30
0.0
  9
$PUCSORGRIGHT
 10
0.0
 20
0.0
 30
0.0
  9
$PUCSORGFRONT
 10
0.0
 20
0.0
 30
0.0
  9
$PUCSORGBACK
 10
0.0
 20
0.0
 30
0.0
  9
$USERI1
 70
     0
  9
$USERI2
 70
     0
  9
$USERI3
 70
     0
  9
$USERI4
 70
     0
  9
$USERI5
 70
     0
  9
$USERR1
 40
0.0
  9
$USERR2
 40
0.0
  9
$USERR3
 40
0.0
  9
$USERR4
 40
0.0
  9
$USERR5
 40
0.0
  9
$WORLDVIEW
 70
     1
  9
$SHADEDGE
 70
     3
  9
$SHADEDIF
 70
    70
  9
$TILEMODE
 70
     1
  9
$MAXACTVP
 70
    64
  9
$PINSBASE
 10
0.0
 20
0.0
 30
0.0
  9
$PLIMCHECK
 70
     0
  9
$PEXTMIN
 10
0.0
 20
0.0
 30
0.0
  9
$PEXTMAX
 10
297.0
 20
210.0
 30
0.0
  9
$PLIMMIN
 10
0.0
 20
0.0
  9
$PLIMMAX
 10
297.0
 20
210.0
  9
$UNITMODE
 70
     0
  9
$VISRETAIN
 70
     1
  9
$PLINEGEN
 70
     0
  9
$PSLTSCALE
 70
     1
  9
$TREEDEPTH
 70
  3020
  9
$CMLSTYLE
  2
Standard
  9
$CMLJUST
 70
     0
  9
$CMLSCALE
 40
1.0
  9
$PROXYGRAPHICS
 70
     1
  9
$MEASUREMENT
 70
     1
  9
$CELWEIGHT
370
    -1
  9
$ENDCAPS
280
     0
  9
$JOINSTYLE
280
     0
  9
$LWDISPLAY
290
     0
  9
$INSUNITS
 70
     4
  9
$HYPERLINKBASE
  1

  9
$STYLESHEET
  1

  9
$XEDIT
290
     1
  9
$CEPSNTYPE
380
     0
  9
$PSTYLEMODE
290
     1
  9
$FINGERPRINTGUID
  2
{FC73894F-66D6-484F-BFAD-B43257547FA3}
  9
$VERSIONGUID
  2
{FAEB1C32-E019-11D5-929B-00C0DF256EC4}
  9
$EXTNAMES
290
     1
  9
$PSVPSCALE
 40
0.0
  9
$OLESTARTUP
290
     0
  9
$SORTENTS
280
   127
  9
$INDEXCTL
280
     0
  9
$HIDETEXT
280
     1
  9
$XCLIPFRAME
280
     2
  9
$HALOGAP
280
     0
  9
$OBSCOLOR
 70
   257
  9
$OBSLTYPE
280
     0
  9
$INTERSECTIONDISPLAY
280
     0
  9
$INTERSECTIONCOLOR
 70
   257
  9
$DIMASSOC
280
     1
  9
$PROJECTNAME
  1

  9
$CAMERADISPLAY
290
     0
  9
$LENSLENGTH
 40
50.0
  9
$CAMERAHEIGHT
 40
0.0
  9
$STEPSPERSEC
 40
2.0
  9
$STEPSIZE
 40
6.0
  9
$3DDWFPREC
 40
2.0
  9
$PSOLWIDTH
 40
0.25
  9
$PSOLHEIGHT
 40
4.0
  9
$LOFTANG1
 40
1.570796326794897
  9
$LOFTANG2
 40
1.570796326794897
  9
$LOFTMAG1
 40
0.0
  9
$LOFTMAG2
 40
0.0
  9
$LOFTPARAM
 70
     7
  9
$LOFTNORMALS
280
     1
  9
$LATITUDE
 40
37.795
  9
$LONGITUDE
 40
-122.394
  9
$NORTHDIRECTION
 40
0.0
  9
$TIMEZONE
 70
 -8000
  9
$LIGHTGLYPHDISPLAY
280
     1
  9
$TILEMODELIGHTSYNCH
280
     1
  9
$CMATERIAL
347
44
  9
$SOLIDHIST
280
     1
  9
$SHOWHIST
280
     1
  9
$DWFFRAME
280
     2
  9
$DGNFRAME
280
     2
  9
$REALWORLDSCALE
290
     1
  9
$INTERFERECOLOR
 62
   256
  9
$CSHADOW
280
     0
  9
$SHADOWPLANELOCATION
 40
0.0
  0
ENDSEC
  0
SECTION
  2
CLASSES
  0
CLASS
  1
ACDBDICTIONARYWDFLT
  2
AcDbDictionaryWithDefault
  3
ObjectDBX Classes
 90
        0
 91
        4
280
     0
281
     0
  0
CLASS
  1
VISUALSTYLE
  2
AcDbVisualStyle
  3
ObjectDBX Classes
 90
     4095
 91
        4
280
     0
281
     0
  0
CLASS
  1
MATERIAL
  2
AcDbMaterial
  3
ObjectDBX Classes
 90
     1153
 91
        4
280
     0
281
     0
  0
CLASS
  1
SCALE
  2
AcDbScale
  3
ObjectDBX Classes
 90
     1153
 91
        4
280
     0
281
     0
  0
CLASS
  1
SUN
  2
AcDbSun
  3
SCENEOE
 90
     1153
 91
        4
280
     0
281
     0
  0
CLASS
  1
DICTIONARYVAR
  2
AcDbDictionaryVar
  3
ObjectDBX Classes
 90
        0
 91
        4
280
     0
281
     0
  0
ENDSEC
  0
SECTION
  2
TABLES
  0
TABLE
  2
VPORT
  5
8
330
0
100
AcDbSymbolTable
 70
     1
  0
VPORT
  5
29
330
8
100
AcDbSymbolTableRecord
100
AcDbViewportTableRecord
  2
*Active
 70
     0
 10
0.0
 20
0.0
 11
1.0
 21
1.0
 12
10.42990654205607
 22
4.5
 13
0.0
 23
0.0
 14
0.5
 24
0.5
 15
0.5
 25
0.5
 16
0.0
 26
0.0
 36
1.0
 17
0.0
 27
0.0
 37
0.0
 40
9.0
 41
1.972972972850329
 42
50.0
 43
0.0
 44
0.0
 50
0.0
 51
0.0
 71
     0
 72
   100
 73
     1
 74
     3
 75
     0
 76
     0
 77
     0
 78
     0
281
     0
 65
     1
110
0.0
120
0.0
130
0.0
111
1.0
121
0.0
131
0.0
112
0.0
122
1.0
132
0.0
 79
     0
146
0.0
 60
     3
 61
     5
292
     1
282
     1
141
0.0
142
0.0
 63
   250
361
69
  0
ENDTAB
  0
TABLE
  2
LTYPE
  5
5
330
0
100
AcDbSymbolTable
 70
     9
  0
LTYPE
  5
14
330
5
100
AcDbSymbolTableRecord
100
AcDbLinetypeTableRecord
  2
ByBlock
 70
     0
  3

 72
    65
 73
     0
 40
0.0
  0
LTYPE
  5
15
330
5
100
AcDbSymbolTableRecord
100
AcDbLinetypeTableRecord
  2
ByLayer
 70
     0
  3

 72
    65
 73
     0
 40
0.0
  0
LTYPE
  5
16
330
5
100
AcDbSymbolTableRecord
100
AcDbLinetypeTableRecord
  2
Continuous
 70
     0
  3
Solid line
 72
    65
 73
     0
 40
0.0
  0
LTYPE
  5
B9
330
5
100
AcDbSymbolTableRecord
100
AcDbLinetypeTableRecord
  2
DOT
 70
     0
  3
DOT
 72
    65
 73
     2
 40
4.0
 49
6.0
 74
     0
 49
-2.0
 74
     0
  0
LTYPE
  5
BA
330
5
100
AcDbSymbolTableRecord
100
AcDbLinetypeTableRecord
  2
HIDDEN
 70
     0
  3
HIDDEN
 72
    65
 73
     2
 40
4.2
 49
8.4
 74
     0
 49
-4.2
 74
     0
  0
LTYPE
  5
BB
330
5
100
AcDbSymbolTableRecord
100
AcDbLinetypeTableRecord
  2
DASHDOT
 70
     0
  3
DASHDOT
 72
    65
 73
     4
 40
14.5
 49
30.0
 74
     0
 49
-9.0
 74
     0
 49
2.5
 74
     0
 49
-9.0
 74
     0
  0
LTYPE
  5
BC
330
5
100
AcDbSymbolTableRecord
100
AcDbLinetypeTableRecord
  2
PHANTOM
 70
     0
  3
PHANTOM
 72
    65
 73
     6
 40
12.0
 49
30.0
 74
     0
 49
-9.0
 74
     0
 49
2.5
 74
     0
 49
-5.0
 74
     0
 49
2.5
 74
     0
 49
-9.0
 74
     0
  0
LTYPE
  5
BD
330
5
100
AcDbSymbolTableRecord
100
AcDbLinetypeTableRecord
  2
ACAD_ISO14W100
 70
     0
  3
ACAD_ISO14W100
 72
    65
 73
     8
 40
1.5
 49
12.0
 74
     0
 49
-3.0
 74
     0
 49
0.5
 74
     0
 49
-3.0
 74
     0
 49
0.5
 74
     0
 49
-3.0
 74
     0
 49
0.5
 74
     0
 49
-3.0
 74
     0
  0
LTYPE
  5
BE
330
5
100
AcDbSymbolTableRecord
100
AcDbLinetypeTableRecord
  2
ACAD_ISO06W100
 70
     0
  3
ACAD_ISO06W100
 72
    65
 73
     8
 40
13.5
 49
24.0
 74
     0
 49
-3.0
 74
     0
 49
0.5
 74
     0
 49
-3.0
 74
     0
 49
0.5
 74
     0
 49
-3.0
 74
     0
 49
0.5
 74
     0
 49
-3.0
 74
     0
  0
LTYPE
  5
BF
330
5
100
AcDbSymbolTableRecord
100
AcDbLinetypeTableRecord
  2
ACAD_ISO11W100
 70
     0
  3
ACAD_ISO11W100
 72
    65
 73
     6
 40
15.5
 49
12.0
 74
     0
 49
-3.0
 74
     0
 49
12.0
 74
     0
 49
-3.0
 74
     0
 49
0.5
 74
     0
 49
-3.0
 74
     0
  0
LTYPE
  5
C0
330
5
100
AcDbSymbolTableRecord
100
AcDbLinetypeTableRecord
  2
ACAD_ISO13W100
 70
     0
  3
ACAD_ISO13W100
 72
    65
 73
     8
 40
13.0
 49
12.0
 74
     0
 49
-3.0
 74
     0
 49
12.0
 74
     0
 49
-3.0
 74
     0
 49
0.5
 74
     0
 49
-3.0
 74
     0
 49
0.5
 74
     0
 49
-3.0
 74
     0
  0
ENDTAB
  0
TABLE
  2
LAYER
  5
2
330
0
100
AcDbSymbolTable
 70
    22
  0
LAYER
  5
10
330
2
100
AcDbSymbolTableRecord
100
AcDbLayerTableRecord
  2
0
 70
     0
 62
     7
  6
Continuous
370
    -3
390
F
347
46
348
0
  0
LAYER
  5
C1
330
2
100
AcDbSymbolTableRecord
100
AcDbLayerTableRecord
  2
1
 70
     0
 62
     7
  6
Continuous
370
     9
390
F
347
46
348
0
  0
LAYER
  5
C2
330
2
100
AcDbSymbolTableRecord
100
AcDbLayerTableRecord
  2
2
 70
     0
 62
   134
  6
Continuous
370
     9
390
F
347
46
348
0
  0
LAYER
  5
C3
330
2
100
AcDbSymbolTableRecord
100
AcDbLayerTableRecord
  2
3
 70
     0
 62
   214
  6
Continuous
370
     9
390
F
347
46
348
0
  0
LAYER
  5
C4
330
2
100
AcDbSymbolTableRecord
100
AcDbLayerTableRecord
  2
4
 70
     0
 62
    54
  6
Continuous
370
     9
390
F
347
46
348
0
  0
LAYER
  5
C5
330
2
100
AcDbSymbolTableRecord
100
AcDbLayerTableRecord
  2
5
 70
     0
 62
    94
  6
Continuous
370
     9
390
F
347
46
348
0
  0
LAYER
  5
C6
330
2
100
AcDbSymbolTableRecord
100
AcDbLayerTableRecord
  2
6
 70
     0
 62
    14
  6
Continuous
370
     9
390
F
347
46
348
0
  0
LAYER
  5
C7
330
2
100
AcDbSymbolTableRecord
100
AcDbLayerTableRecord
  2
7
 70
     0
 62
     4
  6
Continuous
370
     9
390
F
347
46
348
0
  0
LAYER
  5
C8
330
2
100
AcDbSymbolTableRecord
100
AcDbLayerTableRecord
  2
8
 70
     0
 62
     6
  6
Continuous
370
     9
390
F
347
46
348
0
  0
LAYER
  5
C9
330
2
100
AcDbSymbolTableRecord
100
AcDbLayerTableRecord
  2
9
 70
     0
 62
     2
  6
Continuous
370
     9
390
F
347
46
348
0
  0
LAYER
  5
CA
330
2
100
AcDbSymbolTableRecord
100
AcDbLayerTableRecord
  2
10
 70
     0
 62
     3
  6
Continuous
370
     9
390
F
347
46
348
0
  0
LAYER
  5
CB
330
2
100
AcDbSymbolTableRecord
100
AcDbLayerTableRecord
  2
11
 70
     0
 62
   251
  6
Continuous
370
     9
390
F
347
46
348
0
  0
LAYER
  5
CC
330
2
100
AcDbSymbolTableRecord
100
AcDbLayerTableRecord
  2
12
 70
     0
 62
   136
  6
Continuous
370
     9
390
F
347
46
348
0
  0
LAYER
  5
CD
330
2
100
AcDbSymbolTableRecord
100
AcDbLayerTableRecord
  2
13
 70
     0
 62
   216
  6
Continuous
370
     9
390
F
347
46
348
0
  0
LAYER
  5
CE
330
2
100
AcDbSymbolTableRecord
100
AcDbLayerTableRecord
  2
14
 70
     0
 62
    56
  6
Continuous
370
     9
390
F
347
46
348
0
  0
LAYER
  5
CF
330
2
100
AcDbSymbolTableRecord
100
AcDbLayerTableRecord
  2
15
 70
     0
 62
    96
  6
Continuous
370
     9
390
F
347
46
348
0
  0
LAYER
  5
D0
330
2
100
AcDbSymbolTableRecord
100
AcDbLayerTableRecord
  2
16
 70
     0
 62
    16
  6
Continuous
370
     9
390
F
347
46
348
0
  0
LAYER
  5
D1
330
2
100
AcDbSymbolTableRecord
100
AcDbLayerTableRecord
  2
17
 70
     0
 62
   132
  6
Continuous
370
     9
390
F
347
46
348
0
  0
LAYER
  5
D2
330
2
100
AcDbSymbolTableRecord
100
AcDbLayerTableRecord
  2
18
 70
     0
 62
   212
  6
Continuous
370
     9
390
F
347
46
348
0
  0
LAYER
  5
D3
330
2
100
AcDbSymbolTableRecord
100
AcDbLayerTableRecord
  2
19
 70
     0
 62
    52
  6
Continuous
370
     9
390
F
347
46
348
0
  0
LAYER
  5
D4
330
2
100
AcDbSymbolTableRecord
100
AcDbLayerTableRecord
  2
20
 70
     0
 62
   250
  6
Continuous
370
     9
390
F
347
46
348
0
  0
LAYER
  5
D5
330
2
100
AcDbSymbolTableRecord
100
AcDbLayerTableRecord
  2
128
 70
     0
 62
     7
  6
Continuous
370
     9
390
F
347
46
348
0
  0
ENDTAB
  0
TABLE
  2
STYLE
  5
3
330
0
100
AcDbSymbolTable
 70
     3
  0
STYLE
  5
11
330
3
100
AcDbSymbolTableRecord
100
AcDbTextStyleTableRecord
  2
Standard
 70
     0
 40
0.0
 41
1.0
 50
0.0
 71
     0
 42
5.0
  3
txt
  4
bigfont
  0
STYLE
  5
6C
330
3
100
AcDbSymbolTableRecord
100
AcDbTextStyleTableRecord
  2
T_STANDARD
 70
     4
 40
10.0
 41
1.0
 50
0.0
 71
     0
 42
5.0
  3
txt
  4
bigfont
1001
ACAD
1000

1071
      256
  0
STYLE
  5
150
330
3
100
AcDbSymbolTableRecord
100
AcDbTextStyleTableRecord
  2
ＭＳ 明朝
 70
     0
 40
0.0
 41
1.0
 50
0.0
 71
     0
 42
5.0
  3

  4

1001
ACAD
1000
ＭＳ 明朝
1071
      256
  0
ENDTAB
  0
TABLE
  2
VIEW
  5
6
330
0
100
AcDbSymbolTable
 70
     0
  0
ENDTAB
  0
TABLE
  2
UCS
  5
7
330
0
100
AcDbSymbolTable
 70
     0
  0
ENDTAB
  0
TABLE
  2
APPID
  5
9
330
0
100
AcDbSymbolTable
 70
     2
  0
APPID
  5
12
330
9
100
AcDbSymbolTableRecord
100
AcDbRegAppTableRecord
  2
ACAD
 70
     0
  0
APPID
  5
6B
330
9
100
AcDbSymbolTableRecord
100
AcDbRegAppTableRecord
  2
ODA
 70
     0
  0
ENDTAB
  0
TABLE
  2
DIMSTYLE
  5
A
330
0
100
AcDbSymbolTable
 70
     1
100
AcDbDimStyleTable
  0
DIMSTYLE
105
27
102
{ACAD_REACTORS
330
15A
330
164
330
170
330
17A
330
181
330
188
330
192
330
19C
330
1A6
330
1B0
330
1BA
330
1C4
330
1CE
330
1E3
330
1ED
330
1F7
330
201
330
22C
330
236
330
240
330
24A
102
}
330
A
100
AcDbSymbolTableRecord
100
AcDbDimStyleTableRecord
  2
Standard
 70
     0
178
     0
340
11
  0
ENDTAB
  0
TABLE
  2
BLOCK_RECORD
  5
1
330
0
100
AcDbSymbolTable
 70
    51
  0
BLOCK_RECORD
  5
1F
330
1
100
AcDbSymbolTableRecord
100
AcDbBlockTableRecord
  2
*Model_Space
340
22
 70
     0
280
     1
281
     0
  0
BLOCK_RECORD
  5
1B
330
1
100
AcDbSymbolTableRecord
100
AcDbBlockTableRecord
  2
*Paper_Space
340
1E
 70
     0
280
     1
281
     0
  0
BLOCK_RECORD
  5
23
330
1
100
AcDbSymbolTableRecord
100
AcDbBlockTableRecord
  2
*Paper_Space0
340
26
 70
     0
280
     1
281
     0
  0
BLOCK_RECORD
  5
6D
330
1
100
AcDbSymbolTableRecord
100
AcDbBlockTableRecord
  2
_ORIGIN
340
0
 70
     0
280
     1
281
     0
  0
BLOCK_RECORD
  5
72
330
1
100
AcDbSymbolTableRecord
100
AcDbBlockTableRecord
  2
_DOTBLANK
340
0
 70
     0
280
     1
281
     0
  0
BLOCK_RECORD
  5
77
330
1
100
AcDbSymbolTableRecord
100
AcDbBlockTableRecord
  2
_DOT
340
0
 70
     0
280
     1
281
     0
  0
BLOCK_RECORD
  5
7C
330
1
100
AcDbSymbolTableRecord
100
AcDbBlockTableRecord
  2
_OPEN
340
0
102
{BLKREFS
331
158
331
159
331
162
331
163
331
16E
331
16F
331
178
331
179
331
180
331
187
331
190
331
191
331
19A
331
19B
331
1A4
331
1A5
331
1AE
331
1AF
331
1B8
331
1B9
331
1C2
331
1C3
331
1CC
331
1CD
331
1D3
331
1E1
331
1E2
331
1EB
331
1EC
331
1F5
331
1F6
331
1FF
331
200
331
204
331
22A
331
22B
331
234
331
235
331
23E
331
23F
331
248
331
249
331
25B
102
}
 70
     0
280
     1
281
     0
  0
BLOCK_RECORD
  5
82
330
1
100
AcDbSymbolTableRecord
100
AcDbBlockTableRecord
  2
_CLOSED
340
0
 70
     0
280
     1
281
     0
  0
BLOCK_RECORD
  5
89
330
1
100
AcDbSymbolTableRecord
100
AcDbBlockTableRecord
  2
_CLOSEDBLANK
340
0
 70
     0
280
     1
281
     0
  0
BLOCK_RECORD
  5
8F
330
1
100
AcDbSymbolTableRecord
100
AcDbBlockTableRecord
  2
_ARROWFILLED
340
0
 70
     0
280
     1
281
     0
  0
BLOCK_RECORD
  5
93
330
1
100
AcDbSymbolTableRecord
100
AcDbBlockTableRecord
  2
_BOXBLANK
340
0
 70
     0
280
     1
281
     0
  0
BLOCK_RECORD
  5
9B
330
1
100
AcDbSymbolTableRecord
100
AcDbBlockTableRecord
  2
_BOXFILLED
340
0
 70
     0
280
     1
281
     0
  0
BLOCK_RECORD
  5
A0
330
1
100
AcDbSymbolTableRecord
100
AcDbBlockTableRecord
  2
_INTEGRAL
340
0
 70
     0
280
     1
281
     0
  0
BLOCK_RECORD
  5
A5
330
1
100
AcDbSymbolTableRecord
100
AcDbBlockTableRecord
  2
_OBLIQUE
340
0
 70
     0
280
     1
281
     0
  0
BLOCK_RECORD
  5
A9
330
1
100
AcDbSymbolTableRecord
100
AcDbBlockTableRecord
  2
_NONE
340
0
 70
     0
280
     1
281
     0
  0
BLOCK_RECORD
  5
AC
330
1
100
AcDbSymbolTableRecord
100
AcDbBlockTableRecord
  2
MARK_OPEN
340
0
 70
     0
280
     1
281
     0
  0
BLOCK_RECORD
  5
B1
330
1
100
AcDbSymbolTableRecord
100
AcDbBlockTableRecord
  2
MARK_ORIGIN
340
0
 70
     0
280
     1
281
     0
  0
BLOCK_RECORD
  5
B5
330
1
100
AcDbSymbolTableRecord
100
AcDbBlockTableRecord
  2
MARK_DOT
340
0
 70
     0
280
     1
281
     0
  0
BLOCK_RECORD
  5
D7
330
1
100
AcDbSymbolTableRecord
100
AcDbBlockTableRecord
  2
*G16
340
0
102
{BLKREFS
331
DB
102
}
 70
     0
280
     1
281
     0
  0
BLOCK_RECORD
  5
DC
330
1
100
AcDbSymbolTableRecord
100
AcDbBlockTableRecord
  2
*G17
340
0
102
{BLKREFS
331
E0
102
}
 70
     0
280
     1
281
     0
  0
BLOCK_RECORD
  5
E1
330
1
100
AcDbSymbolTableRecord
100
AcDbBlockTableRecord
  2
*G18
340
0
102
{BLKREFS
331
E5
102
}
 70
     0
280
     1
281
     0
  0
BLOCK_RECORD
  5
E6
330
1
100
AcDbSymbolTableRecord
100
AcDbBlockTableRecord
  2
*G19
340
0
102
{BLKREFS
331
EA
102
}
 70
     0
280
     1
281
     0
  0
BLOCK_RECORD
  5
EB
330
1
100
AcDbSymbolTableRecord
100
AcDbBlockTableRecord
  2
*G20
340
0
102
{BLKREFS
331
EF
102
}
 70
     0
280
     1
281
     0
  0
BLOCK_RECORD
  5
F0
330
1
100
AcDbSymbolTableRecord
100
AcDbBlockTableRecord
  2
*G21
340
0
102
{BLKREFS
331
F4
102
}
 70
     0
280
     1
281
     0
  0
BLOCK_RECORD
  5
F5
330
1
100
AcDbSymbolTableRecord
100
AcDbBlockTableRecord
  2
*G22
340
0
102
{BLKREFS
331
F9
102
}
 70
     0
280
     1
281
     0
  0
BLOCK_RECORD
  5
FA
330
1
100
AcDbSymbolTableRecord
100
AcDbBlockTableRecord
  2
*G23
340
0
102
{BLKREFS
331
FE
102
}
 70
     0
280
     1
281
     0
  0
BLOCK_RECORD
  5
115
330
1
100
AcDbSymbolTableRecord
100
AcDbBlockTableRecord
  2
*G24
340
0
102
{BLKREFS
331
119
102
}
 70
     0
280
     1
281
     0
  0
BLOCK_RECORD
  5
11A
330
1
100
AcDbSymbolTableRecord
100
AcDbBlockTableRecord
  2
*G25
340
0
102
{BLKREFS
331
11E
102
}
 70
     0
280
     1
281
     0
  0
BLOCK_RECORD
  5
11F
330
1
100
AcDbSymbolTableRecord
100
AcDbBlockTableRecord
  2
*G26
340
0
102
{BLKREFS
331
123
102
}
 70
     0
280
     1
281
     0
  0
BLOCK_RECORD
  5
124
330
1
100
AcDbSymbolTableRecord
100
AcDbBlockTableRecord
  2
*G27
340
0
102
{BLKREFS
331
128
102
}
 70
     0
280
     1
281
     0
  0
BLOCK_RECORD
  5
129
330
1
100
AcDbSymbolTableRecord
100
AcDbBlockTableRecord
  2
*G28
340
0
102
{BLKREFS
331
12D
102
}
 70
     0
280
     1
281
     0
  0
BLOCK_RECORD
  5
151
330
1
100
AcDbSymbolTableRecord
100
AcDbBlockTableRecord
  2
Dim1
340
0
 70
     0
280
     1
281
     0
  0
BLOCK_RECORD
  5
15B
330
1
100
AcDbSymbolTableRecord
100
AcDbBlockTableRecord
  2
Dim2
340
0
 70
     0
280
     1
281
     0
  0
BLOCK_RECORD
  5
167
330
1
100
AcDbSymbolTableRecord
100
AcDbBlockTableRecord
  2
Dim3
340
0
 70
     0
280
     1
281
     0
  0
BLOCK_RECORD
  5
171
330
1
100
AcDbSymbolTableRecord
100
AcDbBlockTableRecord
  2
Dim4
340
0
 70
     0
280
     1
281
     0
  0
BLOCK_RECORD
  5
17B
330
1
100
AcDbSymbolTableRecord
100
AcDbBlockTableRecord
  2
Dim5
340
0
 70
     0
280
     1
281
     0
  0
BLOCK_RECORD
  5
182
330
1
100
AcDbSymbolTableRecord
100
AcDbBlockTableRecord
  2
Dim6
340
0
 70
     0
280
     1
281
     0
  0
BLOCK_RECORD
  5
189
330
1
100
AcDbSymbolTableRecord
100
AcDbBlockTableRecord
  2
Dim7
340
0
 70
     0
280
     1
281
     0
  0
BLOCK_RECORD
  5
193
330
1
100
AcDbSymbolTableRecord
100
AcDbBlockTableRecord
  2
Dim8
340
0
 70
     0
280
     1
281
     0
  0
BLOCK_RECORD
  5
19D
330
1
100
AcDbSymbolTableRecord
100
AcDbBlockTableRecord
  2
Dim9
340
0
 70
     0
280
     1
281
     0
  0
BLOCK_RECORD
  5
1A7
330
1
100
AcDbSymbolTableRecord
100
AcDbBlockTableRecord
  2
Dim10
340
0
 70
     0
280
     1
281
     0
  0
BLOCK_RECORD
  5
1B1
330
1
100
AcDbSymbolTableRecord
100
AcDbBlockTableRecord
  2
Dim11
340
0
 70
     0
280
     1
281
     0
  0
BLOCK_RECORD
  5
1BB
330
1
100
AcDbSymbolTableRecord
100
AcDbBlockTableRecord
  2
Dim12
340
0
 70
     0
280
     1
281
     0
  0
BLOCK_RECORD
  5
1C5
330
1
100
AcDbSymbolTableRecord
100
AcDbBlockTableRecord
  2
Dim13
340
0
 70
     0
280
     1
281
     0
  0
BLOCK_RECORD
  5
1DA
330
1
100
AcDbSymbolTableRecord
100
AcDbBlockTableRecord
  2
Dim14
340
0
 70
     0
280
     1
281
     0
  0
BLOCK_RECORD
  5
1E4
330
1
100
AcDbSymbolTableRecord
100
AcDbBlockTableRecord
  2
Dim15
340
0
 70
     0
280
     1
281
     0
  0
BLOCK_RECORD
  5
1EE
330
1
100
AcDbSymbolTableRecord
100
AcDbBlockTableRecord
  2
Dim16
340
0
 70
     0
280
     1
281
     0
  0
BLOCK_RECORD
  5
1F8
330
1
100
AcDbSymbolTableRecord
100
AcDbBlockTableRecord
  2
Dim17
340
0
 70
     0
280
     1
281
     0
  0
BLOCK_RECORD
  5
223
330
1
100
AcDbSymbolTableRecord
100
AcDbBlockTableRecord
  2
Dim18
340
0
 70
     0
280
     1
281
     0
  0
BLOCK_RECORD
  5
22D
330
1
100
AcDbSymbolTableRecord
100
AcDbBlockTableRecord
  2
Dim19
340
0
 70
     0
280
     1
281
     0
  0
BLOCK_RECORD
  5
237
330
1
100
AcDbSymbolTableRecord
100
AcDbBlockTableRecord
  2
Dim20
340
0
 70
     0
280
     1
281
     0
  0
BLOCK_RECORD
  5
241
330
1
100
AcDbSymbolTableRecord
100
AcDbBlockTableRecord
  2
Dim21
340
0
 70
     0
280
     1
281
     0
  0
BLOCK_RECORD
  5
262
330
1
100
AcDbSymbolTableRecord
100
AcDbBlockTableRecord
  2
*G50
340
0
102
{BLKREFS
331
267
102
}
 70
     0
280
     1
281
     0
  0
ENDTAB
  0
ENDSEC
  0
SECTION
  2
BLOCKS
  0
BLOCK
  5
20
330
1F
100
AcDbEntity
  8
0
100
AcDbBlockBegin
  2
*Model_Space
 70
     0
 10
0.0
 20
0.0
 30
0.0
  3
*Model_Space
  1
*Model_Space
  0
ENDBLK
  5
21
330
1F
100
AcDbEntity
  8
0
100
AcDbBlockEnd
  0
BLOCK
  5
1C
330
1B
100
AcDbEntity
 67
     1
  8
0
100
AcDbBlockBegin
  2
*Paper_Space
 70
     0
 10
0.0
 20
0.0
 30
0.0
  3
*Paper_Space
  1
*Paper_Space
  0
ENDBLK
  5
1D
330
1B
100
AcDbEntity
 67
     1
  8
0
100
AcDbBlockEnd
  0
BLOCK
  5
24
330
23
100
AcDbEntity
  8
0
100
AcDbBlockBegin
  2
*Paper_Space0
 70
     0
 10
0.0
 20
0.0
 30
0.0
  3
*Paper_Space0
  1
*Paper_Space0
  0
ENDBLK
  5
25
330
23
100
AcDbEntity
  8
0
100
AcDbBlockEnd
  0
BLOCK
  5
70
330
6D
100
AcDbEntity
  8
0
100
AcDbBlockBegin
  2
_ORIGIN
 70
     0
 10
0.0
 20
0.0
 30
0.0
  3
_ORIGIN
  1
_ORIGIN
  0
CIRCLE
  5
6E
330
6D
100
AcDbEntity
  8
0
 62
     0
100
AcDbCircle
 10
0.0
 20
0.0
 30
0.0
 40
0.5
  0
LINE
  5
6F
330
6D
100
AcDbEntity
  8
0
 62
     0
100
AcDbLine
 10
0.0
 20
0.0
 30
0.0
 11
-1.0
 21
0.0
 31
0.0
  0
ENDBLK
  5
71
330
6D
100
AcDbEntity
  8
0
100
AcDbBlockEnd
  0
BLOCK
  5
75
330
72
100
AcDbEntity
  8
0
100
AcDbBlockBegin
  2
_DOTBLANK
 70
     0
 10
0.0
 20
0.0
 30
0.0
  3
_DOTBLANK
  1
_DOTBLANK
  0
CIRCLE
  5
73
330
72
100
AcDbEntity
  8
0
 62
     0
100
AcDbCircle
 10
0.0
 20
0.0
 30
0.0
 40
0.5
  0
LINE
  5
74
330
72
100
AcDbEntity
  8
0
 62
     0
100
AcDbLine
 10
-0.5
 20
0.0
 30
0.0
 11
-1.0
 21
0.0
 31
0.0
  0
ENDBLK
  5
76
330
72
100
AcDbEntity
  8
0
100
AcDbBlockEnd
  0
BLOCK
  5
7A
330
77
100
AcDbEntity
  8
0
100
AcDbBlockBegin
  2
_DOT
 70
     0
 10
0.0
 20
0.0
 30
0.0
  3
_DOT
  1
_DOT
  0
LWPOLYLINE
  5
78
330
77
100
AcDbEntity
  8
0
 62
     0
100
AcDbPolyline
 90
        2
 70
     1
 43
0.5
 10
-0.25
 20
0.0
 42
1.0
 10
0.25
 20
0.0
 42
1.0
  0
LINE
  5
79
330
77
100
AcDbEntity
  8
0
 62
     0
100
AcDbLine
 10
-0.5
 20
0.0
 30
0.0
 11
-1.0
 21
0.0
 31
0.0
  0
ENDBLK
  5
7B
330
77
100
AcDbEntity
  8
0
100
AcDbBlockEnd
  0
BLOCK
  5
80
330
7C
100
AcDbEntity
  8
0
100
AcDbBlockBegin
  2
_OPEN
 70
     0
 10
0.0
 20
0.0
 30
0.0
  3
_OPEN
  1
_OPEN
  0
LINE
  5
7D
330
7C
100
AcDbEntity
  8
0
 62
     0
100
AcDbLine
 10
0.0
 20
0.0
 30
0.0
 11
-1.0
 21
0.1666666666666667
 31
0.0
  0
LINE
  5
7E
330
7C
100
AcDbEntity
  8
0
 62
     0
100
AcDbLine
 10
0.0
 20
0.0
 30
0.0
 11
-1.0
 21
-0.1666666666666667
 31
0.0
  0
LINE
  5
7F
330
7C
100
AcDbEntity
  8
0
 62
     0
100
AcDbLine
 10
0.0
 20
0.0
 30
0.0
 11
-1.0
 21
0.0
 31
0.0
  0
ENDBLK
  5
81
330
7C
100
AcDbEntity
  8
0
100
AcDbBlockEnd
  0
BLOCK
  5
87
330
82
100
AcDbEntity
  8
0
100
AcDbBlockBegin
  2
_CLOSED
 70
     0
 10
0.0
 20
0.0
 30
0.0
  3
_CLOSED
  1
_CLOSED
  0
LINE
  5
83
330
82
100
AcDbEntity
  8
0
 62
     0
100
AcDbLine
 10
0.0
 20
0.0
 30
0.0
 11
-1.0
 21
0.1666666666666667
 31
0.0
  0
LINE
  5
84
330
82
100
AcDbEntity
  8
0
 62
     0
100
AcDbLine
 10
0.0
 20
0.0
 30
0.0
 11
-1.0
 21
-0.1666666666666667
 31
0.0
  0
LINE
  5
85
330
82
100
AcDbEntity
  8
0
 62
     0
100
AcDbLine
 10
-1.0
 20
0.1666666666666667
 30
0.0
 11
-1.0
 21
-0.1666666666666667
 31
0.0
  0
LINE
  5
86
330
82
100
AcDbEntity
  8
0
 62
     0
100
AcDbLine
 10
0.0
 20
0.0
 30
0.0
 11
-1.0
 21
0.0
 31
0.0
  0
ENDBLK
  5
88
330
82
100
AcDbEntity
  8
0
100
AcDbBlockEnd
  0
BLOCK
  5
8D
330
89
100
AcDbEntity
  8
0
100
AcDbBlockBegin
  2
_CLOSEDBLANK
 70
     0
 10
0.0
 20
0.0
 30
0.0
  3
_CLOSEDBLANK
  1
_CLOSEDBLANK
  0
LINE
  5
8A
330
89
100
AcDbEntity
  8
0
 62
     0
100
AcDbLine
 10
0.0
 20
0.0
 30
0.0
 11
-1.0
 21
0.1666666666666667
 31
0.0
  0
LINE
  5
8B
330
89
100
AcDbEntity
  8
0
 62
     0
100
AcDbLine
 10
0.0
 20
0.0
 30
0.0
 11
-1.0
 21
-0.1666666666666667
 31
0.0
  0
LINE
  5
8C
330
89
100
AcDbEntity
  8
0
 62
     0
100
AcDbLine
 10
-1.0
 20
0.1666666666666667
 30
0.0
 11
-1.0
 21
-0.1666666666666667
 31
0.0
  0
ENDBLK
  5
8E
330
89
100
AcDbEntity
  8
0
100
AcDbBlockEnd
  0
BLOCK
  5
91
330
8F
100
AcDbEntity
  8
0
100
AcDbBlockBegin
  2
_ARROWFILLED
 70
     0
 10
0.0
 20
0.0
 30
0.0
  3
_ARROWFILLED
  1
_ARROWFILLED
  0
SOLID
  5
90
330
8F
100
AcDbEntity
  8
0
 62
     0
100
AcDbTrace
 10
0.0
 20
0.0
 30
0.0
 11
-1.0
 21
-0.1666666666666667
 31
0.0
 12
-1.0
 22
0.1666666666666667
 32
0.0
 13
0.0
 23
0.0
 33
0.0
  0
ENDBLK
  5
92
330
8F
100
AcDbEntity
  8
0
100
AcDbBlockEnd
  0
BLOCK
  5
99
330
93
100
AcDbEntity
  8
0
100
AcDbBlockBegin
  2
_BOXBLANK
 70
     0
 10
0.0
 20
0.0
 30
0.0
  3
_BOXBLANK
  1
_BOXBLANK
  0
LINE
  5
94
330
93
100
AcDbEntity
  8
0
 62
     0
100
AcDbLine
 10
-0.5
 20
-0.5
 30
0.0
 11
0.5
 21
-0.5
 31
0.0
  0
LINE
  5
95
330
93
100
AcDbEntity
  8
0
 62
     0
100
AcDbLine
 10
0.5
 20
-0.5
 30
0.0
 11
0.5
 21
0.5
 31
0.0
  0
LINE
  5
96
330
93
100
AcDbEntity
  8
0
 62
     0
100
AcDbLine
 10
0.5
 20
0.5
 30
0.0
 11
-0.5
 21
0.5
 31
0.0
  0
LINE
  5
97
330
93
100
AcDbEntity
  8
0
 62
     0
100
AcDbLine
 10
-0.5
 20
0.5
 30
0.0
 11
-0.5
 21
-0.5
 31
0.0
  0
LINE
  5
98
330
93
100
AcDbEntity
  8
0
 62
     0
100
AcDbLine
 10
-0.5
 20
0.0
 30
0.0
 11
-1.0
 21
0.0
 31
0.0
  0
ENDBLK
  5
9A
330
93
100
AcDbEntity
  8
0
100
AcDbBlockEnd
  0
BLOCK
  5
9E
330
9B
100
AcDbEntity
  8
0
100
AcDbBlockBegin
  2
_BOXFILLED
 70
     0
 10
0.0
 20
0.0
 30
0.0
  3
_BOXFILLED
  1
_BOXFILLED
  0
SOLID
  5
9C
330
9B
100
AcDbEntity
  8
0
 62
     0
100
AcDbTrace
 10
-0.5
 20
0.5
 30
0.0
 11
0.5
 21
0.5
 31
0.0
 12
-0.5
 22
-0.5
 32
0.0
 13
0.5
 23
-0.5
 33
0.0
  0
LINE
  5
9D
330
9B
100
AcDbEntity
  8
0
 62
     0
100
AcDbLine
 10
-0.5
 20
0.0
 30
0.0
 11
-1.0
 21
0.0
 31
0.0
  0
ENDBLK
  5
9F
330
9B
100
AcDbEntity
  8
0
100
AcDbBlockEnd
  0
BLOCK
  5
A3
330
A0
100
AcDbEntity
  8
0
100
AcDbBlockBegin
  2
_INTEGRAL
 70
     0
 10
0.0
 20
0.0
 30
0.0
  3
_INTEGRAL
  1
_INTEGRAL
  0
ARC
  5
A1
330
A0
100
AcDbEntity
  8
0
 62
     0
100
AcDbCircle
 10
0.444888
 20
-0.0913346
 30
0.0
 40
0.4541666
100
AcDbArc
 50
101.9999999999999
 51
167.9999999999998
  0
ARC
  5
A2
330
A0
100
AcDbEntity
  8
0
 62
     0
100
AcDbCircle
 10
-0.444888
 20
0.0913346
 30
0.0
 40
0.4541666
100
AcDbArc
 50
281.9999999999997
 51
347.9999999999997
  0
ENDBLK
  5
A4
330
A0
100
AcDbEntity
  8
0
100
AcDbBlockEnd
  0
BLOCK
  5
A7
330
A5
100
AcDbEntity
  8
0
100
AcDbBlockBegin
  2
_OBLIQUE
 70
     0
 10
0.0
 20
0.0
 30
0.0
  3
_OBLIQUE
  1
_OBLIQUE
  0
LINE
  5
A6
330
A5
100
AcDbEntity
  8
0
 62
     0
100
AcDbLine
 10
-0.5
 20
-0.5
 30
0.0
 11
0.5
 21
0.5
 31
0.0
  0
ENDBLK
  5
A8
330
A5
100
AcDbEntity
  8
0
100
AcDbBlockEnd
  0
BLOCK
  5
AA
330
A9
100
AcDbEntity
  8
0
100
AcDbBlockBegin
  2
_NONE
 70
     0
 10
0.0
 20
0.0
 30
0.0
  3
_NONE
  1
_NONE
  0
ENDBLK
  5
AB
330
A9
100
AcDbEntity
  8
0
100
AcDbBlockEnd
  0
BLOCK
  5
AF
330
AC
100
AcDbEntity
  8
0
100
AcDbBlockBegin
  2
MARK_OPEN
 70
     0
 10
0.0
 20
0.0
 30
0.0
  3
MARK_OPEN
  1
MARK_OPEN
  0
LINE
  5
AD
330
AC
100
AcDbEntity
  8
0
 62
     0
100
AcDbLine
 10
0.0
 20
0.0
 30
0.0
 11
-1.0
 21
0.1666666666666667
 31
0.0
  0
LINE
  5
AE
330
AC
100
AcDbEntity
  8
0
 62
     0
100
AcDbLine
 10
0.0
 20
0.0
 30
0.0
 11
-1.0
 21
-0.1666666666666667
 31
0.0
  0
ENDBLK
  5
B0
330
AC
100
AcDbEntity
  8
0
100
AcDbBlockEnd
  0
BLOCK
  5
B3
330
B1
100
AcDbEntity
  8
0
100
AcDbBlockBegin
  2
MARK_ORIGIN
 70
     0
 10
0.0
 20
0.0
 30
0.0
  3
MARK_ORIGIN
  1
MARK_ORIGIN
  0
CIRCLE
  5
B2
330
B1
100
AcDbEntity
  8
0
 62
     0
100
AcDbCircle
 10
0.0
 20
0.0
 30
0.0
 40
0.5
  0
ENDBLK
  5
B4
330
B1
100
AcDbEntity
  8
0
100
AcDbBlockEnd
  0
BLOCK
  5
B7
330
B5
100
AcDbEntity
  8
0
100
AcDbBlockBegin
  2
MARK_DOT
 70
     0
 10
0.0
 20
0.0
 30
0.0
  3
MARK_DOT
  1
MARK_DOT
  0
LWPOLYLINE
  5
B6
330
B5
100
AcDbEntity
  8
0
 62
     0
100
AcDbPolyline
 90
        2
 70
     1
 43
0.5
 10
-0.25
 20
0.0
 42
1.0
 10
0.25
 20
0.0
 42
1.0
  0
ENDBLK
  5
B8
330
B5
100
AcDbEntity
  8
0
100
AcDbBlockEnd
  0
BLOCK
  5
D8
330
D7
100
AcDbEntity
  8
0
100
AcDbBlockBegin
  2
*G16
 70
     1
 10
0.0
 20
0.0
 30
0.0
  3
*G16
  1
*G16
  0
LINE
  5
DA
330
D7
100
AcDbEntity
  8
1
  6
Continuous
 62
     7
370
     9
100
AcDbLine
 10
201.9592391304346
 20
47.0
 30
0.0
 11
201.9592391304346
 21
11.0
 31
0.0
  0
ENDBLK
  5
D9
330
D7
100
AcDbEntity
  8
0
100
AcDbBlockEnd
  0
BLOCK
  5
DD
330
DC
100
AcDbEntity
  8
0
100
AcDbBlockBegin
  2
*G17
 70
     1
 10
0.0
 20
0.0
 30
0.0
  3
*G17
  1
*G17
  0
LINE
  5
DF
330
DC
100
AcDbEntity
  8
1
  6
Continuous
 62
     7
370
     9
100
AcDbLine
 10
211.9592391304346
 20
47.0
 30
0.0
 11
211.9592391304346
 21
11.0
 31
0.0
  0
ENDBLK
  5
DE
330
DC
100
AcDbEntity
  8
0
100
AcDbBlockEnd
  0
BLOCK
  5
E2
330
E1
100
AcDbEntity
  8
0
100
AcDbBlockBegin
  2
*G18
 70
     1
 10
0.0
 20
0.0
 30
0.0
  3
*G18
  1
*G18
  0
LINE
  5
E4
330
E1
100
AcDbEntity
  8
1
  6
Continuous
 62
     7
370
     9
100
AcDbLine
 10
201.9592391304346
 20
23.0
 30
0.0
 11
281.9592391304345
 21
23.0
 31
0.0
  0
ENDBLK
  5
E3
330
E1
100
AcDbEntity
  8
0
100
AcDbBlockEnd
  0
BLOCK
  5
E7
330
E6
100
AcDbEntity
  8
0
100
AcDbBlockBegin
  2
*G19
 70
     1
 10
0.0
 20
0.0
 30
0.0
  3
*G19
  1
*G19
  0
LINE
  5
E9
330
E6
100
AcDbEntity
  8
1
  6
Continuous
 62
     7
370
     9
100
AcDbLine
 10
181.9592391304346
 20
25.40000000000001
 30
0.0
 11
181.9592391304346
 21
11.0
 31
0.0
  0
ENDBLK
  5
E8
330
E6
100
AcDbEntity
  8
0
100
AcDbBlockEnd
  0
BLOCK
  5
EC
330
EB
100
AcDbEntity
  8
0
100
AcDbBlockBegin
  2
*G20
 70
     1
 10
0.0
 20
0.0
 30
0.0
  3
*G20
  1
*G20
  0
LINE
  5
EE
330
EB
100
AcDbEntity
  8
1
  6
Continuous
 62
     7
370
     9
100
AcDbLine
 10
187.9592391304346
 20
25.40000000000001
 30
0.0
 11
187.9592391304346
 21
11.0
 31
0.0
  0
ENDBLK
  5
ED
330
EB
100
AcDbEntity
  8
0
100
AcDbBlockEnd
  0
BLOCK
  5
F1
330
F0
100
AcDbEntity
  8
0
100
AcDbBlockBegin
  2
*G21
 70
     1
 10
0.0
 20
0.0
 30
0.0
  3
*G21
  1
*G21
  0
LINE
  5
F3
330
F0
100
AcDbEntity
  8
1
  6
Continuous
 62
     7
370
     9
100
AcDbLine
 10
167.9592391304346
 20
25.40000000000001
 30
0.0
 11
167.9592391304346
 21
11.0
 31
0.0
  0
ENDBLK
  5
F2
330
F0
100
AcDbEntity
  8
0
100
AcDbBlockEnd
  0
BLOCK
  5
F6
330
F5
100
AcDbEntity
  8
0
100
AcDbBlockBegin
  2
*G22
 70
     1
 10
0.0
 20
0.0
 30
0.0
  3
*G22
  1
*G22
  0
LINE
  5
F8
330
F5
100
AcDbEntity
  8
1
  6
Continuous
 62
     7
370
     9
100
AcDbLine
 10
171.9592391304346
 20
47.0
 30
0.0
 11
171.9592391304346
 21
25.40000000000001
 31
0.0
  0
ENDBLK
  5
F7
330
F5
100
AcDbEntity
  8
0
100
AcDbBlockEnd
  0
BLOCK
  5
FB
330
FA
100
AcDbEntity
  8
0
100
AcDbBlockBegin
  2
*G23
 70
     1
 10
0.0
 20
0.0
 30
0.0
  3
*G23
  1
*G23
  0
LINE
  5
FD
330
FA
100
AcDbEntity
  8
1
  6
Continuous
 62
     7
370
     9
100
AcDbLine
 10
194.8742391304345
 20
47.0
 30
0.0
 11
211.6792391304346
 21
47.0
 31
0.0
  0
ENDBLK
  5
FC
330
FA
100
AcDbEntity
  8
0
100
AcDbBlockEnd
  0
BLOCK
  5
116
330
115
100
AcDbEntity
  8
0
100
AcDbBlockBegin
  2
*G24
 70
     1
 10
0.0
 20
0.0
 30
0.0
  3
*G24
  1
*G24
  0
LINE
  5
118
330
115
100
AcDbEntity
  8
1
  6
Continuous
 62
     7
370
    30
100
AcDbLine
 10
161.9592391304346
 20
47.0
 30
0.0
 11
281.9592391304345
 21
47.0
 31
0.0
  0
ENDBLK
  5
117
330
115
100
AcDbEntity
  8
0
100
AcDbBlockEnd
  0
BLOCK
  5
11B
330
11A
100
AcDbEntity
  8
0
100
AcDbBlockBegin
  2
*G25
 70
     1
 10
0.0
 20
0.0
 30
0.0
  3
*G25
  1
*G25
  0
LINE
  5
11D
330
11A
100
AcDbEntity
  8
1
  6
Continuous
 62
     7
370
     9
100
AcDbLine
 10
161.9592391304346
 20
39.80000000000001
 30
0.0
 11
201.9592391304346
 21
39.80000000000001
 31
0.0
  0
ENDBLK
  5
11C
330
11A
100
AcDbEntity
  8
0
100
AcDbBlockEnd
  0
BLOCK
  5
120
330
11F
100
AcDbEntity
  8
0
100
AcDbBlockBegin
  2
*G26
 70
     1
 10
0.0
 20
0.0
 30
0.0
  3
*G26
  1
*G26
  0
LINE
  5
122
330
11F
100
AcDbEntity
  8
1
  6
Continuous
 62
     7
370
     9
100
AcDbLine
 10
161.9592391304346
 20
32.59999999999999
 30
0.0
 11
201.9592391304346
 21
32.59999999999999
 31
0.0
  0
ENDBLK
  5
121
330
11F
100
AcDbEntity
  8
0
100
AcDbBlockEnd
  0
BLOCK
  5
125
330
124
100
AcDbEntity
  8
0
100
AcDbBlockBegin
  2
*G27
 70
     1
 10
0.0
 20
0.0
 30
0.0
  3
*G27
  1
*G27
  0
LINE
  5
127
330
124
100
AcDbEntity
  8
1
  6
Continuous
 62
     7
370
     9
100
AcDbLine
 10
161.9592391304346
 20
25.40000000000001
 30
0.0
 11
201.9592391304346
 21
25.40000000000001
 31
0.0
  0
ENDBLK
  5
126
330
124
100
AcDbEntity
  8
0
100
AcDbBlockEnd
  0
BLOCK
  5
12A
330
129
100
AcDbEntity
  8
0
100
AcDbBlockBegin
  2
*G28
 70
     1
 10
0.0
 20
0.0
 30
0.0
  3
*G28
  1
*G28
  0
LINE
  5
12C
330
129
100
AcDbEntity
  8
1
  6
Continuous
 62
     7
370
     9
100
AcDbLine
 10
161.9592391304346
 20
11.0
 30
0.0
 11
281.9592391304345
 21
11.0
 31
0.0
  0
ENDBLK
  5
12B
330
129
100
AcDbEntity
  8
0
100
AcDbBlockEnd
  0
BLOCK
  5
152
330
151
100
AcDbEntity
  8
0
100
AcDbBlockBegin
  2
Dim1
 70
     0
 10
0.0
 20
0.0
 30
0.0
  3
Dim1
  1
Dim1
  0
LINE
  5
154
330
151
100
AcDbEntity
  8
1
  6
Continuous
 62
     7
370
     9
100
AcDbLine
 10
58.67720090293466
 20
84.56379541734987
 30
0.0
 11
31.11880852704397
 21
84.56379541734992
 31
0.0
  0
LINE
  5
155
330
151
100
AcDbEntity
  8
1
  6
Continuous
 62
     7
370
     9
100
AcDbLine
 10
52.40438333439998
 20
78.06379541734987
 30
0.0
 11
31.11880852704399
 21
78.06379541734992
 31
0.0
  0
LINE
  5
156
330
151
100
AcDbEntity
  8
1
  6
Continuous
 62
     7
370
     9
100
AcDbLine
 10
33.11880852704395
 20
92.56379541734992
 30
0.0
 11
33.11880852704401
 21
70.06379541734992
 31
0.0
  0
MTEXT
  5
157
330
151
100
AcDbEntity
  8
1
  6
Continuous
 62
     7
370
     9
100
AcDbMText
 10
33.11880852704398
 20
81.31379541734992
 30
0.0
 40
4.0
 41
40.95238095238095
 46
4.0
 71
     8
 72
     1
  1
6.5
  7
ＭＳ 明朝
 11
9.494107596574928E-16
 21
1.0
 31
0.0
 73
     1
 44
1.0
1001
ACAD
1000
ACAD_MTEXT_DEFINED_HEIGHT_BEGIN
1070
    46
1040
4.0
1000
ACAD_MTEXT_DEFINED_HEIGHT_END
  0
INSERT
  5
158
330
151
100
AcDbEntity
  8
1
  6
Continuous
 62
     7
370
     9
100
AcDbBlockReference
  2
_OPEN
 10
33.11880852704397
 20
84.56379541734992
 30
0.0
 41
3.0
 42
3.0
 43
3.0
 50
269.9999999999998
  0
INSERT
  5
159
330
151
100
AcDbEntity
  8
1
  6
Continuous
 62
     7
370
     9
100
AcDbBlockReference
  2
_OPEN
 10
33.11880852704399
 20
78.06379541734992
 30
0.0
 41
3.0
 42
3.0
 43
3.0
 50
89.9999999999998
  0
ENDBLK
  5
153
330
151
100
AcDbEntity
  8
0
100
AcDbBlockEnd
  0
BLOCK
  5
15C
330
15B
100
AcDbEntity
  8
0
100
AcDbBlockBegin
  2
Dim2
 70
     0
 10
0.0
 20
0.0
 30
0.0
  3
Dim2
  1
Dim2
  0
LINE
  5
15E
330
15B
100
AcDbEntity
  8
1
  6
Continuous
 62
     7
370
     9
100
AcDbLine
 10
58.67720090293466
 20
82.56379581042236
 30
0.0
 11
41.11880852704397
 21
82.56379581042239
 31
0.0
  0
LINE
  5
15F
330
15B
100
AcDbEntity
  8
1
  6
Continuous
 62
     7
370
     9
100
AcDbLine
 10
52.40438382238043
 20
78.06379555807615
 30
0.0
 11
41.11880852704399
 21
78.06379555807615
 31
0.0
  0
LINE
  5
160
330
15B
100
AcDbEntity
  8
1
  6
Continuous
 62
     7
370
     9
100
AcDbLine
 10
43.11880852704395
 20
90.56379581042239
 30
0.0
 11
43.11880852704402
 21
70.06379555807615
 31
0.0
  0
MTEXT
  5
161
330
15B
100
AcDbEntity
  8
1
  6
Continuous
 62
     7
370
     9
100
AcDbMText
 10
43.11880852704398
 20
80.31379568424927
 30
0.0
 40
4.0
 41
41.90476190476191
 46
4.0
 71
     8
 72
     1
  1
4.5
  7
ＭＳ 明朝
 11
6.123233995736766E-17
 21
1.0
 31
0.0
 73
     1
 44
1.0
1001
ACAD
1000
ACAD_MTEXT_DEFINED_HEIGHT_BEGIN
1070
    46
1040
4.0
1000
ACAD_MTEXT_DEFINED_HEIGHT_END
  0
INSERT
  5
162
330
15B
100
AcDbEntity
  8
1
  6
Continuous
 62
     7
370
     9
100
AcDbBlockReference
  2
_OPEN
 10
43.11880852704397
 20
82.56379581042239
 30
0.0
 41
3.0
 42
3.0
 43
3.0
 50
269.9999999999998
  0
INSERT
  5
163
330
15B
100
AcDbEntity
  8
1
  6
Continuous
 62
     7
370
     9
100
AcDbBlockReference
  2
_OPEN
 10
43.11880852704399
 20
78.06379555807615
 30
0.0
 41
3.0
 42
3.0
 43
3.0
 50
89.9999999999998
  0
ENDBLK
  5
15D
330
15B
100
AcDbEntity
  8
0
100
AcDbBlockEnd
  0
BLOCK
  5
168
330
167
100
AcDbEntity
  8
0
100
AcDbBlockBegin
  2
Dim3
 70
     0
 10
0.0
 20
0.0
 30
0.0
  3
Dim3
  1
Dim3
  0
LINE
  5
16A
330
167
100
AcDbEntity
  8
1
  6
Continuous
 62
     7
370
     9
100
AcDbLine
 10
60.67720090293452
 20
77.59588460095557
 30
0.0
 11
60.67720090293442
 21
66.06379541734987
 31
0.0
  0
LINE
  5
16B
330
167
100
AcDbEntity
  8
1
  6
Continuous
 62
     7
370
     9
100
AcDbLine
 10
90.67987915775704
 20
77.59588460095557
 30
0.0
 11
90.67987915775694
 21
66.06379541734987
 31
0.0
  0
LINE
  5
16C
330
167
100
AcDbEntity
  8
1
  6
Continuous
 62
     7
370
     9
100
AcDbLine
 10
60.67720090293444
 20
68.06379541734987
 30
0.0
 11
90.67987915775696
 21
68.06379541734987
 31
0.0
  0
MTEXT
  5
16D
330
167
100
AcDbEntity
  8
1
  6
Continuous
 62
     7
370
     9
100
AcDbMText
 10
75.6785400303457
 20
68.06379541734987
 30
0.0
 40
4.0
 41
32.38095238095238
 46
4.0
 71
     8
 72
     1
  1
30
  7
ＭＳ 明朝
 73
     1
 44
1.0
1001
ACAD
1000
ACAD_MTEXT_DEFINED_HEIGHT_BEGIN
1070
    46
1040
4.0
1000
ACAD_MTEXT_DEFINED_HEIGHT_END
  0
INSERT
  5
16E
330
167
100
AcDbEntity
  8
1
  6
Continuous
 62
     7
370
     9
100
AcDbBlockReference
  2
_OPEN
 10
60.67720090293444
 20
68.06379541734987
 30
0.0
 41
3.0
 42
3.0
 43
3.0
 50
179.9999999999998
  0
INSERT
  5
16F
330
167
100
AcDbEntity
  8
1
  6
Continuous
 62
     7
370
     9
100
AcDbBlockReference
  2
_OPEN
 10
90.67987915775696
 20
68.06379541734987
 30
0.0
 41
3.0
 42
3.0
 43
3.0
 50
359.9999999999997
  0
ENDBLK
  5
169
330
167
100
AcDbEntity
  8
0
100
AcDbBlockEnd
  0
BLOCK
  5
172
330
171
100
AcDbEntity
  8
0
100
AcDbBlockBegin
  2
Dim4
 70
     0
 10
0.0
 20
0.0
 30
0.0
  3
Dim4
  1
Dim4
  0
LINE
  5
174
330
171
100
AcDbEntity
  8
1
  6
Continuous
 62
     7
370
     9
100
AcDbLine
 10
53.11880852704397
 20
77.59588389346021
 30
0.0
 11
53.11880852704379
 21
56.06379541734987
 31
0.0
  0
LINE
  5
175
330
171
100
AcDbEntity
  8
1
  6
Continuous
 62
     7
370
     9
100
AcDbLine
 10
98.23559413760002
 20
77.59588460095557
 30
0.0
 11
98.23559413759985
 21
56.06379541734987
 31
0.0
  0
LINE
  5
176
330
171
100
AcDbEntity
  8
1
  6
Continuous
 62
     7
370
     9
100
AcDbLine
 10
53.1188085270438
 20
58.06379541734987
 30
0.0
 11
98.23559413759986
 21
58.06379541734987
 31
0.0
  0
MTEXT
  5
177
330
171
100
AcDbEntity
  8
1
  6
Continuous
 62
     7
370
     9
100
AcDbMText
 10
75.67720133232183
 20
58.06379541734987
 30
0.0
 40
4.0
 41
79.99999999999999
 46
4.0
 71
     8
 72
     1
  1
45.12
  7
ＭＳ 明朝
 73
     1
 44
1.0
1001
ACAD
1000
ACAD_MTEXT_DEFINED_HEIGHT_BEGIN
1070
    46
1040
4.0
1000
ACAD_MTEXT_DEFINED_HEIGHT_END
  0
INSERT
  5
178
330
171
100
AcDbEntity
  8
1
  6
Continuous
 62
     7
370
     9
100
AcDbBlockReference
  2
_OPEN
 10
53.1188085270438
 20
58.06379541734987
 30
0.0
 41
3.0
 42
3.0
 43
3.0
 50
179.9999999999998
  0
INSERT
  5
179
330
171
100
AcDbEntity
  8
1
  6
Continuous
 62
     7
370
     9
100
AcDbBlockReference
  2
_OPEN
 10
98.23559413759986
 20
58.06379541734987
 30
0.0
 41
3.0
 42
3.0
 43
3.0
 50
359.9999999999997
  0
ENDBLK
  5
173
330
171
100
AcDbEntity
  8
0
100
AcDbBlockEnd
  0
BLOCK
  5
17C
330
17B
100
AcDbEntity
  8
0
100
AcDbBlockBegin
  2
Dim5
 70
     0
 10
0.0
 20
0.0
 30
0.0
  3
Dim5
  1
Dim5
  0
LINE
  5
17E
330
17B
100
AcDbEntity
  8
1
  6
Continuous
 62
     7
370
     9
100
AcDbLine
 10
91.53225118360623
 20
82.41302719531502
 30
0.0
 11
96.88629464128847
 21
97.12314013795859
 31
0.0
  0
MTEXT
  5
17F
330
17B
100
AcDbEntity
  8
1
  6
Continuous
 62
     7
370
     9
100
AcDbMText
 10
95.4385910588012
 20
93.39335006122431
 30
0.0
 40
4.0
 41
60.95238095238095
 46
4.0
 71
     8
 72
     1
  1
R2.5
  7
ＭＳ 明朝
 11
0.3420201548253594
 21
0.9396926166003632
 31
0.0
 73
     1
 44
1.0
1001
ACAD
1000
ACAD_MTEXT_DEFINED_HEIGHT_BEGIN
1070
    46
1040
4.0
1000
ACAD_MTEXT_DEFINED_HEIGHT_END
  0
INSERT
  5
180
330
17B
100
AcDbEntity
  8
1
  6
Continuous
 62
     7
370
     9
100
AcDbBlockReference
  2
_OPEN
 10
91.53225118360623
 20
82.41302719531504
 30
0.0
 41
3.0
 42
3.0
 43
3.0
 50
249.9999992988304
  0
ENDBLK
  5
17D
330
17B
100
AcDbEntity
  8
0
100
AcDbBlockEnd
  0
BLOCK
  5
183
330
182
100
AcDbEntity
  8
0
100
AcDbBlockBegin
  2
Dim6
 70
     0
 10
0.0
 20
0.0
 30
0.0
  3
Dim6
  1
Dim6
  0
LINE
  5
185
330
182
100
AcDbEntity
  8
1
  6
Continuous
 62
     7
370
     9
100
AcDbLine
 10
88.26017912661278
 20
83.85958407986278
 30
0.0
 11
80.62782875749015
 21
95.84573276629382
 31
0.0
  0
MTEXT
  5
186
330
182
100
AcDbEntity
  8
1
  6
Continuous
 62
     7
370
     9
100
AcDbMText
 10
79.45776448354273
 20
90.27209487074418
 30
0.0
 40
4.0
 41
60.95238095238095
 46
4.0
 71
     8
 72
     1
  1
R4.5
  7
ＭＳ 明朝
 11
0.5371159600694982
 21
-0.8435084145630209
 31
0.0
 73
     1
 44
1.0
1001
ACAD
1000
ACAD_MTEXT_DEFINED_HEIGHT_BEGIN
1070
    46
1040
4.0
1000
ACAD_MTEXT_DEFINED_HEIGHT_END
  0
INSERT
  5
187
330
182
100
AcDbEntity
  8
1
  6
Continuous
 62
     7
370
     9
100
AcDbBlockReference
  2
_OPEN
 10
88.26017912661278
 20
83.85958407986277
 30
0.0
 41
3.0
 42
3.0
 43
3.0
 50
302.4875247234154
  0
ENDBLK
  5
184
330
182
100
AcDbEntity
  8
0
100
AcDbBlockEnd
  0
BLOCK
  5
18A
330
189
100
AcDbEntity
  8
0
100
AcDbBlockBegin
  2
Dim7
 70
     0
 10
0.0
 20
0.0
 30
0.0
  3
Dim7
  1
Dim7
  0
LINE
  5
18C
330
189
100
AcDbEntity
  8
1
  6
Continuous
 62
     7
370
     9
100
AcDbLine
 10
70.95734181356902
 20
80.06379541734987
 30
0.0
 11
71.33189243642664
 21
80.06379541734987
 31
0.0
  0
LINE
  5
18D
330
189
100
AcDbEntity
  8
1
  6
Continuous
 62
     7
370
     9
100
AcDbLine
 10
70.52036608690179
 20
78.06379541734987
 30
0.0
 11
71.33189243642664
 21
78.06379541734987
 31
0.0
  0
LINE
  5
18E
330
189
100
AcDbEntity
  8
1
  6
Continuous
 62
     7
370
     9
100
AcDbLine
 10
69.33189243642664
 20
88.06379541734987
 30
0.0
 11
69.33189243642664
 21
70.06379541734987
 31
0.0
  0
MTEXT
  5
18F
330
189
100
AcDbEntity
  8
1
  6
Continuous
 62
     7
370
     9
100
AcDbMText
 10
69.0197669173786
 20
85.81530474728737
 30
0.0
 40
4.0
 41
13.33333333333334
 46
4.0
 71
     7
 72
     1
  1
2
  7
ＭＳ 明朝
 11
1.615544574432587E-15
 21
1.0
 31
0.0
 73
     1
 44
1.0
1001
ACAD
1000
ACAD_MTEXT_DEFINED_HEIGHT_BEGIN
1070
    46
1040
4.0
1000
ACAD_MTEXT_DEFINED_HEIGHT_END
  0
INSERT
  5
190
330
189
100
AcDbEntity
  8
1
  6
Continuous
 62
     7
370
     9
100
AcDbBlockReference
  2
_OPEN
 10
69.33189243642664
 20
80.06379541734987
 30
0.0
 41
3.0
 42
3.0
 43
3.0
 50
269.9999999999998
  0
INSERT
  5
191
330
189
100
AcDbEntity
  8
1
  6
Continuous
 62
     7
370
     9
100
AcDbBlockReference
  2
_OPEN
 10
69.33189243642664
 20
78.06379541734987
 30
0.0
 41
3.0
 42
3.0
 43
3.0
 50
89.99999999999959
  0
ENDBLK
  5
18B
330
189
100
AcDbEntity
  8
0
100
AcDbBlockEnd
  0
BLOCK
  5
194
330
193
100
AcDbEntity
  8
0
100
AcDbBlockBegin
  2
Dim8
 70
     0
 10
0.0
 20
0.0
 30
0.0
  3
Dim8
  1
Dim8
  0
LINE
  5
196
330
193
100
AcDbEntity
  8
1
  6
Continuous
 62
     7
370
     9
100
AcDbLine
 10
51.11880852704398
 20
152.0428893905192
 30
0.0
 11
31.11880852704396
 21
152.0428893905192
 31
0.0
  0
LINE
  5
197
330
193
100
AcDbEntity
  8
1
  6
Continuous
 62
     7
370
     9
100
AcDbLine
 10
51.11880852704398
 20
127.0428893905192
 30
0.0
 11
31.118808527044
 21
127.0428893905192
 31
0.0
  0
LINE
  5
198
330
193
100
AcDbEntity
  8
1
  6
Continuous
 62
     7
370
     9
100
AcDbLine
 10
33.11880852704396
 20
152.0428893905192
 30
0.0
 11
33.118808527044
 21
127.0428893905192
 31
0.0
  0
MTEXT
  5
199
330
193
100
AcDbEntity
  8
1
  6
Continuous
 62
     7
370
     9
100
AcDbMText
 10
33.11880852704398
 20
139.5428893905192
 30
0.0
 40
4.0
 41
32.38095238095238
 46
4.0
 71
     8
 72
     1
  1
25
  7
ＭＳ 明朝
 11
1.615544574432587E-15
 21
1.0
 31
0.0
 73
     1
 44
1.0
1001
ACAD
1000
ACAD_MTEXT_DEFINED_HEIGHT_BEGIN
1070
    46
1040
4.0
1000
ACAD_MTEXT_DEFINED_HEIGHT_END
  0
INSERT
  5
19A
330
193
100
AcDbEntity
  8
1
  6
Continuous
 62
     7
370
     9
100
AcDbBlockReference
  2
_OPEN
 10
33.11880852704396
 20
152.0428893905192
 30
0.0
 41
3.0
 42
3.0
 43
3.0
 50
89.99999999999991
  0
INSERT
  5
19B
330
193
100
AcDbEntity
  8
1
  6
Continuous
 62
     7
370
     9
100
AcDbBlockReference
  2
_OPEN
 10
33.118808527044
 20
127.0428893905192
 30
0.0
 41
3.0
 42
3.0
 43
3.0
 50
269.9999999999999
  0
ENDBLK
  5
195
330
193
100
AcDbEntity
  8
0
100
AcDbBlockEnd
  0
BLOCK
  5
19E
330
19D
100
AcDbEntity
  8
0
100
AcDbBlockBegin
  2
Dim9
 70
     0
 10
0.0
 20
0.0
 30
0.0
  3
Dim9
  1
Dim9
  0
LINE
  5
1A0
330
19D
100
AcDbEntity
  8
1
  6
Continuous
 62
     7
370
     9
100
AcDbLine
 10
51.11880852704398
 20
152.0428893905192
 30
0.0
 11
41.11880852704397
 21
152.0428893905192
 31
0.0
  0
LINE
  5
1A1
330
19D
100
AcDbEntity
  8
1
  6
Continuous
 62
     7
370
     9
100
AcDbLine
 10
44.80358283763799
 20
139.5428893905192
 30
0.0
 11
41.118808527044
 21
139.5428893905192
 31
0.0
  0
LINE
  5
1A2
330
19D
100
AcDbEntity
  8
1
  6
Continuous
 62
     7
370
     9
100
AcDbLine
 10
43.11880852704397
 20
152.0428893905192
 30
0.0
 11
43.118808527044
 21
139.5428893905192
 31
0.0
  0
MTEXT
  5
1A3
330
19D
100
AcDbEntity
  8
1
  6
Continuous
 62
     7
370
     9
100
AcDbMText
 10
43.11880852704398
 20
145.7928893905192
 30
0.0
 40
4.0
 41
58.0952380952381
 46
4.0
 71
     8
 72
     1
  1
12.5
  7
ＭＳ 明朝
 11
1.615544574432587E-15
 21
1.0
 31
0.0
 73
     1
 44
1.0
1001
ACAD
1000
ACAD_MTEXT_DEFINED_HEIGHT_BEGIN
1070
    46
1040
4.0
1000
ACAD_MTEXT_DEFINED_HEIGHT_END
  0
INSERT
  5
1A4
330
19D
100
AcDbEntity
  8
1
  6
Continuous
 62
     7
370
     9
100
AcDbBlockReference
  2
_OPEN
 10
43.11880852704397
 20
152.0428893905192
 30
0.0
 41
3.0
 42
3.0
 43
3.0
 50
89.99999999999991
  0
INSERT
  5
1A5
330
19D
100
AcDbEntity
  8
1
  6
Continuous
 62
     7
370
     9
100
AcDbBlockReference
  2
_OPEN
 10
43.118808527044
 20
139.5428893905192
 30
0.0
 41
3.0
 42
3.0
 43
3.0
 50
269.9999999999999
  0
ENDBLK
  5
19F
330
19D
100
AcDbEntity
  8
0
100
AcDbBlockEnd
  0
BLOCK
  5
1A8
330
1A7
100
AcDbEntity
  8
0
100
AcDbBlockBegin
  2
Dim10
 70
     0
 10
0.0
 20
0.0
 30
0.0
  3
Dim10
  1
Dim10
  0
LINE
  5
1AA
330
1A7
100
AcDbEntity
  8
1
  6
Continuous
 62
     7
370
     9
100
AcDbLine
 10
53.11880852704398
 20
154.0428893905192
 30
0.0
 11
53.11880852704403
 21
184.0428893905192
 31
0.0
  0
LINE
  5
1AB
330
1A7
100
AcDbEntity
  8
1
  6
Continuous
 62
     7
370
     9
100
AcDbLine
 10
98.23559361872549
 20
154.0428893905192
 30
0.0
 11
98.23559361872555
 21
184.0428893905192
 31
0.0
  0
LINE
  5
1AC
330
1A7
100
AcDbEntity
  8
1
  6
Continuous
 62
     7
370
     9
100
AcDbLine
 10
53.11880852704403
 20
182.0428893905192
 30
0.0
 11
98.23559361872555
 21
182.0428893905192
 31
0.0
  0
MTEXT
  5
1AD
330
1A7
100
AcDbEntity
  8
1
  6
Continuous
 62
     7
370
     9
100
AcDbMText
 10
75.67720107288478
 20
182.0428893905192
 30
0.0
 40
4.0
 41
79.99999999999999
 46
4.0
 71
     8
 72
     1
  1
45.12
  7
ＭＳ 明朝
 73
     1
 44
1.0
1001
ACAD
1000
ACAD_MTEXT_DEFINED_HEIGHT_BEGIN
1070
    46
1040
4.0
1000
ACAD_MTEXT_DEFINED_HEIGHT_END
  0
INSERT
  5
1AE
330
1A7
100
AcDbEntity
  8
1
  6
Continuous
 62
     7
370
     9
100
AcDbBlockReference
  2
_OPEN
 10
53.11880852704403
 20
182.0428893905192
 30
0.0
 41
3.0
 42
3.0
 43
3.0
 50
179.9999999999998
  0
INSERT
  5
1AF
330
1A7
100
AcDbEntity
  8
1
  6
Continuous
 62
     7
370
     9
100
AcDbBlockReference
  2
_OPEN
 10
98.23559361872555
 20
182.0428893905192
 30
0.0
 41
3.0
 42
3.0
 43
3.0
 50
359.9999999999997
  0
ENDBLK
  5
1A9
330
1A7
100
AcDbEntity
  8
0
100
AcDbBlockEnd
  0
BLOCK
  5
1B2
330
1B1
100
AcDbEntity
  8
0
100
AcDbBlockBegin
  2
Dim11
 70
     0
 10
0.0
 20
0.0
 30
0.0
  3
Dim11
  1
Dim11
  0
LINE
  5
1B4
330
1B1
100
AcDbEntity
  8
1
  6
Continuous
 62
     7
370
     9
100
AcDbLine
 10
60.67720090293453
 20
144.1249100729634
 30
0.0
 11
60.67720090293458
 21
174.0428893905192
 31
0.0
  0
LINE
  5
1B5
330
1B1
100
AcDbEntity
  8
1
  6
Continuous
 62
     7
370
     9
100
AcDbLine
 10
90.67720090293453
 20
146.0285626502869
 30
0.0
 11
90.67720090293457
 21
174.0428893905192
 31
0.0
  0
LINE
  5
1B6
330
1B1
100
AcDbEntity
  8
1
  6
Continuous
 62
     7
370
     9
100
AcDbLine
 10
60.67720090293458
 20
172.0428893905192
 30
0.0
 11
90.67720090293457
 21
172.0428893905192
 31
0.0
  0
MTEXT
  5
1B7
330
1B1
100
AcDbEntity
  8
1
  6
Continuous
 62
     7
370
     9
100
AcDbMText
 10
75.67720090293457
 20
172.0428893905192
 30
0.0
 40
4.0
 41
32.38095238095238
 46
4.0
 71
     8
 72
     1
  1
30
  7
ＭＳ 明朝
 73
     1
 44
1.0
1001
ACAD
1000
ACAD_MTEXT_DEFINED_HEIGHT_BEGIN
1070
    46
1040
4.0
1000
ACAD_MTEXT_DEFINED_HEIGHT_END
  0
INSERT
  5
1B8
330
1B1
100
AcDbEntity
  8
1
  6
Continuous
 62
     7
370
     9
100
AcDbBlockReference
  2
_OPEN
 10
60.67720090293458
 20
172.0428893905192
 30
0.0
 41
3.0
 42
3.0
 43
3.0
 50
179.9999999999998
  0
INSERT
  5
1B9
330
1B1
100
AcDbEntity
  8
1
  6
Continuous
 62
     7
370
     9
100
AcDbBlockReference
  2
_OPEN
 10
90.67720090293457
 20
172.0428893905192
 30
0.0
 41
3.0
 42
3.0
 43
3.0
 50
359.9999999999997
  0
ENDBLK
  5
1B3
330
1B1
100
AcDbEntity
  8
0
100
AcDbBlockEnd
  0
BLOCK
  5
1BC
330
1BB
100
AcDbEntity
  8
0
100
AcDbBlockBegin
  2
Dim12
 70
     0
 10
0.0
 20
0.0
 30
0.0
  3
Dim12
  1
Dim12
  0
LINE
  5
1BE
330
1BB
100
AcDbEntity
  8
1
  6
Continuous
 62
     7
370
     9
100
AcDbLine
 10
67.67795782714009
 20
154.0428893905192
 30
0.0
 11
67.6779578271401
 21
164.0428893905192
 31
0.0
  0
LINE
  5
1BF
330
1BB
100
AcDbEntity
  8
1
  6
Continuous
 62
     7
370
     9
100
AcDbLine
 10
83.67644298171508
 20
154.0428893905192
 30
0.0
 11
83.6764429817151
 21
164.0428893905192
 31
0.0
  0
LINE
  5
1C0
330
1BB
100
AcDbEntity
  8
1
  6
Continuous
 62
     7
370
     9
100
AcDbLine
 10
67.6779578271401
 20
162.0428893905192
 30
0.0
 11
83.6764429817151
 21
162.0428893905192
 31
0.0
  0
MTEXT
  5
1C1
330
1BB
100
AcDbEntity
  8
1
  6
Continuous
 62
     7
370
     9
100
AcDbMText
 10
75.6772004044276
 20
162.0428893905192
 30
0.0
 40
4.0
 41
29.52380952380953
 46
4.0
 71
     8
 72
     1
  1
16
  7
ＭＳ 明朝
 73
     1
 44
1.0
1001
ACAD
1000
ACAD_MTEXT_DEFINED_HEIGHT_BEGIN
1070
    46
1040
4.0
1000
ACAD_MTEXT_DEFINED_HEIGHT_END
  0
INSERT
  5
1C2
330
1BB
100
AcDbEntity
  8
1
  6
Continuous
 62
     7
370
     9
100
AcDbBlockReference
  2
_OPEN
 10
67.6779578271401
 20
162.0428893905192
 30
0.0
 41
3.0
 42
3.0
 43
3.0
 50
179.9999999999998
  0
INSERT
  5
1C3
330
1BB
100
AcDbEntity
  8
1
  6
Continuous
 62
     7
370
     9
100
AcDbBlockReference
  2
_OPEN
 10
83.6764429817151
 20
162.0428893905192
 30
0.0
 41
3.0
 42
3.0
 43
3.0
 50
359.9999999999997
  0
ENDBLK
  5
1BD
330
1BB
100
AcDbEntity
  8
0
100
AcDbBlockEnd
  0
BLOCK
  5
1C6
330
1C5
100
AcDbEntity
  8
0
100
AcDbBlockBegin
  2
Dim13
 70
     0
 10
0.0
 20
0.0
 30
0.0
  3
Dim13
  1
Dim13
  0
LINE
  5
1C8
330
1C5
100
AcDbEntity
  8
1
  6
Continuous
 62
     7
370
     9
100
AcDbLine
 10
52.87229462005136
 20
76.77822005686546
 30
0.0
 11
32.13168961837835
 21
59.37478582476951
 31
0.0
  0
LINE
  5
1C9
330
1C5
100
AcDbEntity
  8
1
  6
Continuous
 62
     7
370
     9
100
AcDbLine
 10
67.92447150020321
 20
77.24613129691458
 30
0.0
 11
89.22271089943447
 21
59.37478428972396
 31
0.0
  0
ARC
  5
1CA
330
1C5
100
AcDbEntity
  8
1
  6
Continuous
 62
     7
370
     9
100
AcDbCircle
 10
60.67720090293453
 20
83.32731412480001
 30
0.0
 40
35.26351870745015
100
AcDbArc
 50
220.0000003644199
 51
319.9999965544773
  0
MTEXT
  5
1CB
330
1C5
100
AcDbEntity
  8
1
  6
Continuous
 62
     7
370
     9
100
AcDbMText
 10
60.67719995478006
 20
48.06379541734987
 30
0.0
 40
4.0
 41
65.71428571428571
 46
4.0
 71
     8
 72
     1
  1
100ﾟ
  7
ＭＳ 明朝
 11
0.9999999999999997
 21
-2.688768896419446E-8
 31
0.0
 73
     1
 44
1.0
1001
ACAD
1000
ACAD_MTEXT_DEFINED_HEIGHT_BEGIN
1070
    46
1040
4.0
1000
ACAD_MTEXT_DEFINED_HEIGHT_END
  0
INSERT
  5
1CC
330
1C5
100
AcDbEntity
  8
1
  6
Continuous
 62
     7
370
     9
100
AcDbBlockReference
  2
_OPEN
 10
33.66377849643962
 20
60.66036105388719
 30
0.0
 41
3.0
 42
3.0
 43
3.0
 50
130.00000036442
  0
INSERT
  5
1CD
330
1C5
100
AcDbEntity
  8
1
  6
Continuous
 62
     7
370
     9
100
AcDbBlockReference
  2
_OPEN
 10
87.6906220905055
 20
60.66035960123028
 30
0.0
 41
3.0
 42
3.0
 43
3.0
 50
49.99999655447758
  0
ENDBLK
  5
1C7
330
1C5
100
AcDbEntity
  8
0
100
AcDbBlockEnd
  0
BLOCK
  5
1DB
330
1DA
100
AcDbEntity
  8
0
100
AcDbBlockBegin
  2
Dim14
 70
     0
 10
0.0
 20
0.0
 30
0.0
  3
Dim14
  1
Dim14
  0
LINE
  5
1DD
330
1DA
100
AcDbEntity
  8
1
  6
Continuous
 62
     7
370
     9
100
AcDbLine
 10
174.6254720846867
 20
84.56379541734985
 30
0.0
 11
184.6254720846867
 21
84.56379541734977
 31
0.0
  0
LINE
  5
1DE
330
1DA
100
AcDbEntity
  8
1
  6
Continuous
 62
     7
370
     9
100
AcDbLine
 10
174.6254720846867
 20
78.06379541734985
 30
0.0
 11
184.6254720846867
 21
78.06379541734977
 31
0.0
  0
LINE
  5
1DF
330
1DA
100
AcDbEntity
  8
1
  6
Continuous
 62
     7
370
     9
100
AcDbLine
 10
182.6254720846867
 20
92.56379541734978
 30
0.0
 11
182.6254720846867
 21
70.06379541734978
 31
0.0
  0
MTEXT
  5
1E0
330
1DA
100
AcDbEntity
  8
1
  6
Continuous
 62
     7
370
     9
100
AcDbMText
 10
182.6254720846867
 20
81.31379541734978
 30
0.0
 40
4.0
 41
40.95238095238095
 46
4.0
 71
     8
 72
     1
  1
6.5
  7
ＭＳ 明朝
 11
1.615544574432587E-15
 21
1.0
 31
0.0
 73
     1
 44
1.0
1001
ACAD
1000
ACAD_MTEXT_DEFINED_HEIGHT_BEGIN
1070
    46
1040
4.0
1000
ACAD_MTEXT_DEFINED_HEIGHT_END
  0
INSERT
  5
1E1
330
1DA
100
AcDbEntity
  8
1
  6
Continuous
 62
     7
370
     9
100
AcDbBlockReference
  2
_OPEN
 10
182.6254720846867
 20
84.56379541734978
 30
0.0
 41
3.0
 42
3.0
 43
3.0
 50
269.9999999999998
  0
INSERT
  5
1E2
330
1DA
100
AcDbEntity
  8
1
  6
Continuous
 62
     7
370
     9
100
AcDbBlockReference
  2
_OPEN
 10
182.6254720846867
 20
78.06379541734978
 30
0.0
 41
3.0
 42
3.0
 43
3.0
 50
89.99999999999959
  0
ENDBLK
  5
1DC
330
1DA
100
AcDbEntity
  8
0
100
AcDbBlockEnd
  0
BLOCK
  5
1E5
330
1E4
100
AcDbEntity
  8
0
100
AcDbBlockBegin
  2
Dim15
 70
     0
 10
0.0
 20
0.0
 30
0.0
  3
Dim15
  1
Dim15
  0
LINE
  5
1E7
330
1E4
100
AcDbEntity
  8
1
  6
Continuous
 62
     7
370
     9
100
AcDbLine
 10
147.6254720846867
 20
86.56379541734987
 30
0.0
 11
147.6254720846867
 21
106.5637954173499
 31
0.0
  0
LINE
  5
1E8
330
1E4
100
AcDbEntity
  8
1
  6
Continuous
 62
     7
370
     9
100
AcDbLine
 10
172.6254720846867
 20
86.56379541734987
 30
0.0
 11
172.6254720846867
 21
106.5637954173499
 31
0.0
  0
LINE
  5
1E9
330
1E4
100
AcDbEntity
  8
1
  6
Continuous
 62
     7
370
     9
100
AcDbLine
 10
147.6254720846867
 20
104.5637954173499
 30
0.0
 11
172.6254720846867
 21
104.5637954173499
 31
0.0
  0
MTEXT
  5
1EA
330
1E4
100
AcDbEntity
  8
1
  6
Continuous
 62
     7
370
     9
100
AcDbMText
 10
160.1254720846867
 20
104.5637954173499
 30
0.0
 40
4.0
 41
32.38095238095238
 46
4.0
 71
     8
 72
     1
  1
25
  7
ＭＳ 明朝
 73
     1
 44
1.0
1001
ACAD
1000
ACAD_MTEXT_DEFINED_HEIGHT_BEGIN
1070
    46
1040
4.0
1000
ACAD_MTEXT_DEFINED_HEIGHT_END
  0
INSERT
  5
1EB
330
1E4
100
AcDbEntity
  8
1
  6
Continuous
 62
     7
370
     9
100
AcDbBlockReference
  2
_OPEN
 10
147.6254720846867
 20
104.5637954173499
 30
0.0
 41
3.0
 42
3.0
 43
3.0
 50
179.9999999999998
  0
INSERT
  5
1EC
330
1E4
100
AcDbEntity
  8
1
  6
Continuous
 62
     7
370
     9
100
AcDbBlockReference
  2
_OPEN
 10
172.6254720846867
 20
104.5637954173499
 30
0.0
 41
3.0
 42
3.0
 43
3.0
 50
359.9999999999997
  0
ENDBLK
  5
1E6
330
1E4
100
AcDbEntity
  8
0
100
AcDbBlockEnd
  0
BLOCK
  5
1EF
330
1EE
100
AcDbEntity
  8
0
100
AcDbBlockBegin
  2
Dim16
 70
     0
 10
0.0
 20
0.0
 30
0.0
  3
Dim16
  1
Dim16
  0
LINE
  5
1F1
330
1EE
100
AcDbEntity
  8
1
  6
Continuous
 62
     7
370
     9
100
AcDbLine
 10
147.6254720846867
 20
86.56379541734987
 30
0.0
 11
147.6254720846867
 21
96.56379541734987
 31
0.0
  0
LINE
  5
1F2
330
1EE
100
AcDbEntity
  8
1
  6
Continuous
 62
     7
370
     9
100
AcDbLine
 10
160.1254720846867
 20
89.02370151552213
 30
0.0
 11
160.1254720846867
 21
96.56379541734987
 31
0.0
  0
LINE
  5
1F3
330
1EE
100
AcDbEntity
  8
1
  6
Continuous
 62
     7
370
     9
100
AcDbLine
 10
147.6254720846867
 20
94.56379541734987
 30
0.0
 11
160.1254720846867
 21
94.56379541734987
 31
0.0
  0
MTEXT
  5
1F4
330
1EE
100
AcDbEntity
  8
1
  6
Continuous
 62
     7
370
     9
100
AcDbMText
 10
153.8754720846867
 20
94.56379541734987
 30
0.0
 40
4.0
 41
58.0952380952381
 46
4.0
 71
     8
 72
     1
  1
12.5
  7
ＭＳ 明朝
 73
     1
 44
1.0
1001
ACAD
1000
ACAD_MTEXT_DEFINED_HEIGHT_BEGIN
1070
    46
1040
4.0
1000
ACAD_MTEXT_DEFINED_HEIGHT_END
  0
INSERT
  5
1F5
330
1EE
100
AcDbEntity
  8
1
  6
Continuous
 62
     7
370
     9
100
AcDbBlockReference
  2
_OPEN
 10
147.6254720846867
 20
94.56379541734987
 30
0.0
 41
3.0
 42
3.0
 43
3.0
 50
179.9999999999998
  0
INSERT
  5
1F6
330
1EE
100
AcDbEntity
  8
1
  6
Continuous
 62
     7
370
     9
100
AcDbBlockReference
  2
_OPEN
 10
160.1254720846867
 20
94.56379541734987
 30
0.0
 41
3.0
 42
3.0
 43
3.0
 50
359.9999999999997
  0
ENDBLK
  5
1F0
330
1EE
100
AcDbEntity
  8
0
100
AcDbBlockEnd
  0
BLOCK
  5
1F9
330
1F8
100
AcDbEntity
  8
0
100
AcDbBlockBegin
  2
Dim17
 70
     0
 10
0.0
 20
0.0
 30
0.0
  3
Dim17
  1
Dim17
  0
LINE
  5
1FB
330
1F8
100
AcDbEntity
  8
1
  6
Continuous
 62
     7
370
     9
100
AcDbLine
 10
160.1254720846867
 20
89.02370151552213
 30
0.0
 11
160.1254720846867
 21
96.56379541734987
 31
0.0
  0
LINE
  5
1FC
330
1F8
100
AcDbEntity
  8
1
  6
Continuous
 62
     7
370
     9
100
AcDbLine
 10
172.6254720846867
 20
86.56379541734987
 30
0.0
 11
172.6254720846867
 21
96.56379541734987
 31
0.0
  0
LINE
  5
1FD
330
1F8
100
AcDbEntity
  8
1
  6
Continuous
 62
     7
370
     9
100
AcDbLine
 10
160.1254720846867
 20
94.56379541734987
 30
0.0
 11
172.6254720846867
 21
94.56379541734987
 31
0.0
  0
MTEXT
  5
1FE
330
1F8
100
AcDbEntity
  8
1
  6
Continuous
 62
     7
370
     9
100
AcDbMText
 10
166.3754720846867
 20
94.56379541734987
 30
0.0
 40
4.0
 41
58.0952380952381
 46
4.0
 71
     8
 72
     1
  1
12.5
  7
ＭＳ 明朝
 73
     1
 44
1.0
1001
ACAD
1000
ACAD_MTEXT_DEFINED_HEIGHT_BEGIN
1070
    46
1040
4.0
1000
ACAD_MTEXT_DEFINED_HEIGHT_END
  0
INSERT
  5
1FF
330
1F8
100
AcDbEntity
  8
1
  6
Continuous
 62
     7
370
     9
100
AcDbBlockReference
  2
_OPEN
 10
160.1254720846867
 20
94.56379541734987
 30
0.0
 41
3.0
 42
3.0
 43
3.0
 50
179.9999999999998
  0
INSERT
  5
200
330
1F8
100
AcDbEntity
  8
1
  6
Continuous
 62
     7
370
     9
100
AcDbBlockReference
  2
_OPEN
 10
172.6254720846867
 20
94.56379541734987
 30
0.0
 41
3.0
 42
3.0
 43
3.0
 50
359.9999999999997
  0
ENDBLK
  5
1FA
330
1F8
100
AcDbEntity
  8
0
100
AcDbBlockEnd
  0
BLOCK
  5
224
330
223
100
AcDbEntity
  8
0
100
AcDbBlockBegin
  2
Dim18
 70
     0
 10
0.0
 20
0.0
 30
0.0
  3
Dim18
  1
Dim18
  0
LINE
  5
226
330
223
100
AcDbEntity
  8
1
  6
Continuous
 62
     7
370
     9
100
AcDbLine
 10
172.6254720846867
 20
154.0428893905192
 30
0.0
 11
172.6254720846868
 21
164.0428893905192
 31
0.0
  0
LINE
  5
227
330
223
100
AcDbEntity
  8
1
  6
Continuous
 62
     7
370
     9
100
AcDbLine
 10
179.1254720846867
 20
154.0428893905192
 30
0.0
 11
179.1254720846868
 21
164.0428893905192
 31
0.0
  0
LINE
  5
228
330
223
100
AcDbEntity
  8
1
  6
Continuous
 62
     7
370
     9
100
AcDbLine
 10
164.6254720846868
 20
162.0428893905192
 30
0.0
 11
187.1254720846868
 21
162.0428893905192
 31
0.0
  0
MTEXT
  5
229
330
223
100
AcDbEntity
  8
1
  6
Continuous
 62
     7
370
     9
100
AcDbMText
 10
175.8754720846868
 20
162.0428893905192
 30
0.0
 40
4.0
 41
40.95238095238095
 46
4.0
 71
     8
 72
     1
  1
6.5
  7
ＭＳ 明朝
 73
     1
 44
1.0
1001
ACAD
1000
ACAD_MTEXT_DEFINED_HEIGHT_BEGIN
1070
    46
1040
4.0
1000
ACAD_MTEXT_DEFINED_HEIGHT_END
  0
INSERT
  5
22A
330
223
100
AcDbEntity
  8
1
  6
Continuous
 62
     7
370
     9
100
AcDbBlockReference
  2
_OPEN
 10
172.6254720846868
 20
162.0428893905192
 30
0.0
 41
3.0
 42
3.0
 43
3.0
 50
359.9999999999997
  0
INSERT
  5
22B
330
223
100
AcDbEntity
  8
1
  6
Continuous
 62
     7
370
     9
100
AcDbBlockReference
  2
_OPEN
 10
179.1254720846868
 20
162.0428893905192
 30
0.0
 41
3.0
 42
3.0
 43
3.0
 50
179.9999999999995
  0
ENDBLK
  5
225
330
223
100
AcDbEntity
  8
0
100
AcDbBlockEnd
  0
BLOCK
  5
22E
330
22D
100
AcDbEntity
  8
0
100
AcDbBlockBegin
  2
Dim19
 70
     0
 10
0.0
 20
0.0
 30
0.0
  3
Dim19
  1
Dim19
  0
LINE
  5
230
330
22D
100
AcDbEntity
  8
1
  6
Continuous
 62
     7
370
     9
100
AcDbLine
 10
170.6254720846867
 20
127.0428893905192
 30
0.0
 11
150.6254720846867
 21
127.0428893905192
 31
0.0
  0
LINE
  5
231
330
22D
100
AcDbEntity
  8
1
  6
Continuous
 62
     7
370
     9
100
AcDbLine
 10
170.6254720846867
 20
152.0428893905192
 30
0.0
 11
150.6254720846867
 21
152.0428893905192
 31
0.0
  0
LINE
  5
232
330
22D
100
AcDbEntity
  8
1
  6
Continuous
 62
     7
370
     9
100
AcDbLine
 10
152.6254720846867
 20
127.0428893905192
 30
0.0
 11
152.6254720846867
 21
152.0428893905192
 31
0.0
  0
MTEXT
  5
233
330
22D
100
AcDbEntity
  8
1
  6
Continuous
 62
     7
370
     9
100
AcDbMText
 10
152.6254720846867
 20
139.5428893905192
 30
0.0
 40
4.0
 41
32.38095238095238
 46
4.0
 71
     8
 72
     1
  1
25
  7
ＭＳ 明朝
 11
1.615544574432587E-15
 21
1.0
 31
0.0
 73
     1
 44
1.0
1001
ACAD
1000
ACAD_MTEXT_DEFINED_HEIGHT_BEGIN
1070
    46
1040
4.0
1000
ACAD_MTEXT_DEFINED_HEIGHT_END
  0
INSERT
  5
234
330
22D
100
AcDbEntity
  8
1
  6
Continuous
 62
     7
370
     9
100
AcDbBlockReference
  2
_OPEN
 10
152.6254720846867
 20
127.0428893905192
 30
0.0
 41
3.0
 42
3.0
 43
3.0
 50
269.9999999999998
  0
INSERT
  5
235
330
22D
100
AcDbEntity
  8
1
  6
Continuous
 62
     7
370
     9
100
AcDbBlockReference
  2
_OPEN
 10
152.6254720846867
 20
152.0428893905192
 30
0.0
 41
3.0
 42
3.0
 43
3.0
 50
89.99999999999959
  0
ENDBLK
  5
22F
330
22D
100
AcDbEntity
  8
0
100
AcDbBlockEnd
  0
BLOCK
  5
238
330
237
100
AcDbEntity
  8
0
100
AcDbBlockBegin
  2
Dim20
 70
     0
 10
0.0
 20
0.0
 30
0.0
  3
Dim20
  1
Dim20
  0
LINE
  5
23A
330
237
100
AcDbEntity
  8
1
  6
Continuous
 62
     7
370
     9
100
AcDbLine
 10
170.6254720846867
 20
127.0428893905192
 30
0.0
 11
160.6254720846867
 21
127.0428893905192
 31
0.0
  0
LINE
  5
23B
330
237
100
AcDbEntity
  8
1
  6
Continuous
 62
     7
370
     9
100
AcDbLine
 10
168.1655659865144
 20
139.5428893905192
 30
0.0
 11
160.6254720846867
 21
139.5428893905193
 31
0.0
  0
LINE
  5
23C
330
237
100
AcDbEntity
  8
1
  6
Continuous
 62
     7
370
     9
100
AcDbLine
 10
162.6254720846867
 20
127.0428893905192
 30
0.0
 11
162.6254720846867
 21
139.5428893905192
 31
0.0
  0
MTEXT
  5
23D
330
237
100
AcDbEntity
  8
1
  6
Continuous
 62
     7
370
     9
100
AcDbMText
 10
162.6254720846867
 20
133.2928893905192
 30
0.0
 40
4.0
 41
58.0952380952381
 46
4.0
 71
     8
 72
     1
  1
12.5
  7
ＭＳ 明朝
 11
1.615544574432587E-15
 21
1.0
 31
0.0
 73
     1
 44
1.0
1001
ACAD
1000
ACAD_MTEXT_DEFINED_HEIGHT_BEGIN
1070
    46
1040
4.0
1000
ACAD_MTEXT_DEFINED_HEIGHT_END
  0
INSERT
  5
23E
330
237
100
AcDbEntity
  8
1
  6
Continuous
 62
     7
370
     9
100
AcDbBlockReference
  2
_OPEN
 10
162.6254720846867
 20
127.0428893905192
 30
0.0
 41
3.0
 42
3.0
 43
3.0
 50
269.9999999999998
  0
INSERT
  5
23F
330
237
100
AcDbEntity
  8
1
  6
Continuous
 62
     7
370
     9
100
AcDbBlockReference
  2
_OPEN
 10
162.6254720846867
 20
139.5428893905192
 30
0.0
 41
3.0
 42
3.0
 43
3.0
 50
89.99999999999959
  0
ENDBLK
  5
239
330
237
100
AcDbEntity
  8
0
100
AcDbBlockEnd
  0
BLOCK
  5
242
330
241
100
AcDbEntity
  8
0
100
AcDbBlockBegin
  2
Dim21
 70
     0
 10
0.0
 20
0.0
 30
0.0
  3
Dim21
  1
Dim21
  0
LINE
  5
244
330
241
100
AcDbEntity
  8
1
  6
Continuous
 62
     7
370
     9
100
AcDbLine
 10
168.1655659865144
 20
139.5428893905192
 30
0.0
 11
160.6254720846867
 21
139.5428893905193
 31
0.0
  0
LINE
  5
245
330
241
100
AcDbEntity
  8
1
  6
Continuous
 62
     7
370
     9
100
AcDbLine
 10
170.6254720846867
 20
152.0428893905192
 30
0.0
 11
160.6254720846867
 21
152.0428893905192
 31
0.0
  0
LINE
  5
246
330
241
100
AcDbEntity
  8
1
  6
Continuous
 62
     7
370
     9
100
AcDbLine
 10
162.6254720846867
 20
139.5428893905192
 30
0.0
 11
162.6254720846867
 21
152.0428893905192
 31
0.0
  0
MTEXT
  5
247
330
241
100
AcDbEntity
  8
1
  6
Continuous
 62
     7
370
     9
100
AcDbMText
 10
162.6254720846867
 20
145.7928893905192
 30
0.0
 40
4.0
 41
58.0952380952381
 46
4.0
 71
     8
 72
     1
  1
12.5
  7
ＭＳ 明朝
 11
1.615544574432587E-15
 21
1.0
 31
0.0
 73
     1
 44
1.0
1001
ACAD
1000
ACAD_MTEXT_DEFINED_HEIGHT_BEGIN
1070
    46
1040
4.0
1000
ACAD_MTEXT_DEFINED_HEIGHT_END
  0
INSERT
  5
248
330
241
100
AcDbEntity
  8
1
  6
Continuous
 62
     7
370
     9
100
AcDbBlockReference
  2
_OPEN
 10
162.6254720846867
 20
139.5428893905192
 30
0.0
 41
3.0
 42
3.0
 43
3.0
 50
269.9999999999998
  0
INSERT
  5
249
330
241
100
AcDbEntity
  8
1
  6
Continuous
 62
     7
370
     9
100
AcDbBlockReference
  2
_OPEN
 10
162.6254720846867
 20
152.0428893905192
 30
0.0
 41
3.0
 42
3.0
 43
3.0
 50
89.99999999999959
  0
ENDBLK
  5
243
330
241
100
AcDbEntity
  8
0
100
AcDbBlockEnd
  0
BLOCK
  5
263
330
262
100
AcDbEntity
  8
0
100
AcDbBlockBegin
  2
*G50
 70
     1
 10
0.0
 20
0.0
 30
0.0
  3
*G50
  1
*G50
  0
LINE
  5
265
330
262
100
AcDbEntity
  8
1
  6
Continuous
 62
     7
370
     9
100
AcDbLine
 10
201.9592391304346
 20
35.0
 30
0.0
 11
214.6777224963837
 21
35.0
 31
0.0
  0
LINE
  5
266
330
262
100
AcDbEntity
  8
1
  6
Continuous
 62
     7
370
     9
100
AcDbLine
 10
238.6777224963837
 20
35.0
 30
0.0
 11
281.9592391304345
 21
35.0
 31
0.0
  0
ENDBLK
  5
264
330
262
100
AcDbEntity
  8
0
100
AcDbBlockEnd
  0
ENDSEC
  0
SECTION
  2
ENTITIES
  0
LINE
  5
D6
330
1F
100
AcDbEntity
  8
1
  6
Continuous
 62
     7
370
    30
100
AcDbLine
 10
0.0
 20
195.0
 30
0.0
 11
0.0
 21
0.0
 31
0.0
  0
INSERT
  5
DB
330
1F
100
AcDbEntity
  8
0
100
AcDbBlockReference
  2
*G16
 10
0.0
 20
0.0
 30
0.0
  0
INSERT
  5
E0
330
1F
100
AcDbEntity
  8
0
100
AcDbBlockReference
  2
*G17
 10
0.0
 20
0.0
 30
0.0
  0
INSERT
  5
E5
330
1F
100
AcDbEntity
  8
0
100
AcDbBlockReference
  2
*G18
 10
0.0
 20
0.0
 30
0.0
  0
INSERT
  5
EA
330
1F
100
AcDbEntity
  8
0
100
AcDbBlockReference
  2
*G19
 10
0.0
 20
0.0
 30
0.0
  0
INSERT
  5
EF
330
1F
100
AcDbEntity
  8
0
100
AcDbBlockReference
  2
*G20
 10
0.0
 20
0.0
 30
0.0
  0
INSERT
  5
F4
330
1F
100
AcDbEntity
  8
0
100
AcDbBlockReference
  2
*G21
 10
0.0
 20
0.0
 30
0.0
  0
INSERT
  5
F9
330
1F
100
AcDbEntity
  8
0
100
AcDbBlockReference
  2
*G22
 10
0.0
 20
0.0
 30
0.0
  0
INSERT
  5
FE
330
1F
100
AcDbEntity
  8
0
100
AcDbBlockReference
  2
*G23
 10
0.0
 20
0.0
 30
0.0
  0
MTEXT
  5
FF
330
1F
100
AcDbEntity
  8
1
  6
DASHDOT
 62
     7
370
     9
100
AcDbMText
 10
168.7690110237809
 20
3.249999999999972
 30
0.0
 40
4.5
 41
17.9946588904054
 46
4.5
 71
     7
 72
     1
  1
{\fＭＳ 明朝;\W1.222222;\T0.750000;KURO}
 73
     1
 44
1.0
1001
ACAD
1000
ACAD_MTEXT_DEFINED_HEIGHT_BEGIN
1070
    46
1040
4.5
1000
ACAD_MTEXT_DEFINED_HEIGHT_END
  0
ARC
  5
100
330
1F
100
AcDbEntity
  8
1
  6
Continuous
 62
     7
370
    30
100
AcDbCircle
 10
169.7092391304346
 20
5.5
 30
0.0
 40
2.750000000000007
100
AcDbArc
 50
89.99999999999991
 51
269.9999999999998
  0
ARC
  5
101
330
1F
100
AcDbEntity
  8
1
  6
Continuous
 62
     7
370
    30
100
AcDbCircle
 10
179.2092391304346
 20
5.5
 30
0.0
 40
2.75
100
AcDbArc
 50
269.9999999999998
 51
89.99999999999991
  0
LINE
  5
102
330
1F
100
AcDbEntity
  8
1
  6
Continuous
 62
     7
370
    30
100
AcDbLine
 10
169.7092391304346
 20
8.25
 30
0.0
 11
179.2092391304346
 21
8.25
 31
0.0
  0
LINE
  5
103
330
1F
100
AcDbEntity
  8
1
  6
Continuous
 62
     7
370
    30
100
AcDbLine
 10
169.7092391304346
 20
2.75
 30
0.0
 11
179.2092391304346
 21
2.75
 31
0.0
  0
MTEXT
  5
104
330
1F
100
AcDbEntity
  8
1
  6
Continuous
 62
     7
370
     9
100
AcDbMText
 10
191.0587248202584
 20
2.749999999999972
 30
0.0
 40
6.0
 41
147.314931458018
 46
6.0
 71
     7
 72
     1
  1
{\fＭＳ 明朝;\W1.033333;\T0.750000;黒岩ステンレス工業株式会社}
 73
     1
 44
1.0
1001
ACAD
1000
ACAD_MTEXT_DEFINED_HEIGHT_BEGIN
1070
    46
1040
6.0
1000
ACAD_MTEXT_DEFINED_HEIGHT_END
  0
MTEXT
  5
105
330
1F
100
AcDbEntity
  8
1
  6
Continuous
 62
     7
370
     9
100
AcDbMText
 10
204.7882025599842
 20
40.96496391878671
 30
0.0
 40
4.199999999999999
 41
8.250498498498496
 46
4.199999999999999
 71
     7
 72
     1
  1
{\fＭＳ 明朝;\T0.750000;型}
 73
     1
 44
1.0
1001
ACAD
1000
ACAD_MTEXT_DEFINED_HEIGHT_BEGIN
1070
    46
1040
4.199999999999999
1000
ACAD_MTEXT_DEFINED_HEIGHT_END
  0
MTEXT
  5
106
330
1F
100
AcDbEntity
  8
1
  6
Continuous
 62
     7
370
     9
100
AcDbMText
 10
204.6896066695733
 20
36.9471813845401
 30
0.0
 40
4.199999999999999
 41
8.011699699699697
 46
4.199999999999999
 71
     7
 72
     1
  1
{\fＭＳ 明朝;\T0.750000;式}
 73
     1
 44
1.0
1001
ACAD
1000
ACAD_MTEXT_DEFINED_HEIGHT_BEGIN
1070
    46
1040
4.199999999999999
1000
ACAD_MTEXT_DEFINED_HEIGHT_END
  0
MTEXT
  5
107
330
1F
100
AcDbEntity
  8
1
  6
Continuous
 62
     7
370
     9
100
AcDbMText
 10
204.8198940961877
 20
28.89224926614477
 30
0.0
 40
4.199999999999999
 41
7.056504504504503
 46
4.199999999999999
 71
     7
 72
     1
  1
{\fＭＳ 明朝;\T0.750000;品}
 73
     1
 44
1.0
1001
ACAD
1000
ACAD_MTEXT_DEFINED_HEIGHT_BEGIN
1070
    46
1040
4.199999999999999
1000
ACAD_MTEXT_DEFINED_HEIGHT_END
  0
MTEXT
  5
108
330
1F
100
AcDbEntity
  8
1
  6
Continuous
 62
     7
370
     9
100
AcDbMText
 10
204.8198940961877
 20
24.8991157045009
 30
0.0
 40
4.199999999999999
 41
7.366942942942941
 46
4.199999999999999
 71
     7
 72
     1
  1
{\fＭＳ 明朝;\T0.750000;名}
 73
     1
 44
1.0
1001
ACAD
1000
ACAD_MTEXT_DEFINED_HEIGHT_BEGIN
1070
    46
1040
4.199999999999999
1000
ACAD_MTEXT_DEFINED_HEIGHT_END
  0
MTEXT
  5
109
330
1F
100
AcDbEntity
  8
1
  6
Continuous
 62
     7
370
     9
100
AcDbMText
 10
202.995870123585
 20
17.51146648727973
 30
0.0
 40
4.0
 41
14.38620620620621
 46
4.0
 71
     7
 72
     1
  1
{\fＭＳ 明朝;\T0.750000;図面}
 73
     1
 44
1.0
1001
ACAD
1000
ACAD_MTEXT_DEFINED_HEIGHT_BEGIN
1070
    46
1040
4.0
1000
ACAD_MTEXT_DEFINED_HEIGHT_END
  0
MTEXT
  5
10A
330
1F
100
AcDbEntity
  8
1
  6
Continuous
 62
     7
370
     9
100
AcDbMText
 10
202.995870123585
 20
11.9478412426613
 30
0.0
 40
4.0
 41
15.35845845845846
 46
4.0
 71
     7
 72
     1
  1
{\fＭＳ 明朝;\T0.750000;番号}
 73
     1
 44
1.0
1001
ACAD
1000
ACAD_MTEXT_DEFINED_HEIGHT_BEGIN
1070
    46
1040
4.0
1000
ACAD_MTEXT_DEFINED_HEIGHT_END
  0
MTEXT
  5
10B
330
1F
100
AcDbEntity
  8
1
  6
Continuous
 62
     7
370
     9
100
AcDbMText
 10
182.8189254073422
 20
19.32492661448131
 30
0.0
 40
4.0
 41
7.92016016016016
 46
4.0
 71
     7
 72
     1
  1
{\fＭＳ 明朝;\T0.750000;製}
 73
     1
 44
1.0
1001
ACAD
1000
ACAD_MTEXT_DEFINED_HEIGHT_BEGIN
1070
    46
1040
4.0
1000
ACAD_MTEXT_DEFINED_HEIGHT_END
  0
MTEXT
  5
10C
330
1F
100
AcDbEntity
  8
1
  6
Continuous
 62
     7
370
     9
100
AcDbMText
 10
182.88935104335
 20
13.26832191780807
 30
0.0
 40
4.0
 41
6.822822822822823
 46
4.0
 71
     7
 72
     1
  1
{\fＭＳ 明朝;\T0.750000;図}
 73
     1
 44
1.0
1001
ACAD
1000
ACAD_MTEXT_DEFINED_HEIGHT_BEGIN
1070
    46
1040
4.0
1000
ACAD_MTEXT_DEFINED_HEIGHT_END
  0
MTEXT
  5
10D
330
1F
100
AcDbEntity
  8
1
  6
Continuous
 62
     7
370
     9
100
AcDbMText
 10
162.9588960531347
 20
19.53620352250479
 30
0.0
 40
4.0
 41
7.664304304304304
 46
4.0
 71
     7
 72
     1
  1
{\fＭＳ 明朝;\T0.750000;検}
 73
     1
 44
1.0
1001
ACAD
1000
ACAD_MTEXT_DEFINED_HEIGHT_BEGIN
1070
    46
1040
4.0
1000
ACAD_MTEXT_DEFINED_HEIGHT_END
  0
MTEXT
  5
10E
330
1F
100
AcDbEntity
  8
1
  6
Continuous
 62
     7
370
     9
100
AcDbMText
 10
162.8884704171268
 20
13.05704500978459
 30
0.0
 40
4.0
 41
6.822822822822823
 46
4.0
 71
     7
 72
     1
  1
{\fＭＳ 明朝;\T0.750000;図}
 73
     1
 44
1.0
1001
ACAD
1000
ACAD_MTEXT_DEFINED_HEIGHT_BEGIN
1070
    46
1040
4.0
1000
ACAD_MTEXT_DEFINED_HEIGHT_END
  0
MTEXT
  5
10F
330
1F
100
AcDbEntity
  8
1
  6
Continuous
 62
     7
370
     9
100
AcDbMText
 10
162.9941088711386
 20
34.06149094911936
 30
0.0
 40
4.0
 41
14.77283283283283
 46
4.0
 71
     7
 72
     1
  1
{\fＭＳ 明朝;\T0.750000;尺度}
 73
     1
 44
1.0
1001
ACAD
1000
ACAD_MTEXT_DEFINED_HEIGHT_BEGIN
1070
    46
1040
4.0
1000
ACAD_MTEXT_DEFINED_HEIGHT_END
  0
MTEXT
  5
110
330
1F
100
AcDbEntity
  8
1
  6
Continuous
 62
     7
370
     9
100
AcDbMText
 10
162.8884704171268
 20
26.84286325831698
 30
0.0
 40
4.0
 41
15.29023023023023
 46
4.0
 71
     7
 72
     1
  1
{\fＭＳ 明朝;\T0.750000;材質}
 73
     1
 44
1.0
1001
ACAD
1000
ACAD_MTEXT_DEFINED_HEIGHT_BEGIN
1070
    46
1040
4.0
1000
ACAD_MTEXT_DEFINED_HEIGHT_END
  0
MTEXT
  5
111
330
1F
100
AcDbEntity
  8
1
  6
Continuous
 62
     7
370
     9
100
AcDbMText
 10
163.9096421392404
 20
43.88586717221139
 30
0.0
 40
2.5
 41
11.1243993993994
 46
2.5
 71
     7
 72
     1
  1
{\fＭＳ 明朝;\T0.750000;完 図}
 73
     1
 44
1.0
1001
ACAD
1000
ACAD_MTEXT_DEFINED_HEIGHT_BEGIN
1070
    46
1040
2.5
1000
ACAD_MTEXT_DEFINED_HEIGHT_END
  0
MTEXT
  5
112
330
1F
100
AcDbEntity
  8
1
  6
Continuous
 62
     7
370
     9
100
AcDbMText
 10
163.8744293212364
 20
40.32937255381609
 30
0.0
 40
2.5
 41
10.28576076076076
 46
2.5
 71
     7
 72
     1
  1
{\fＭＳ 明朝;\T0.750000;月 日}
 73
     1
 44
1.0
1001
ACAD
1000
ACAD_MTEXT_DEFINED_HEIGHT_BEGIN
1070
    46
1040
2.5
1000
ACAD_MTEXT_DEFINED_HEIGHT_END
  0
MTEXT
  5
113
330
1F
100
AcDbEntity
  8
1
  6
DASHDOT
 62
     7
370
     9
100
AcDbMText
 10
182.1410786607672
 20
32.59999999999999
 30
0.0
 40
5.0
 41
10.75660660660661
 46
5.0
 71
     7
 72
     1
  1
{\fＭＳ 明朝;\T0.750000;1/1}
 73
     1
 44
1.0
1001
ACAD
1000
ACAD_MTEXT_DEFINED_HEIGHT_BEGIN
1070
    46
1040
5.0
1000
ACAD_MTEXT_DEFINED_HEIGHT_END
  0
MTEXT
  5
114
330
1F
100
AcDbEntity
  8
1
  6
DASHDOT
 62
     7
370
     9
100
AcDbMText
 10
189.3244935335657
 20
15.2402397260274
 30
0.0
 40
5.0
 41
16.54196745714286
 46
5.0
 71
     7
 72
     1
  1
{\fＤＦまるもじ体;\T2.051497;黒岩}
 73
     1
 44
1.0
1001
ACAD
1000
ACAD_MTEXT_DEFINED_HEIGHT_BEGIN
1070
    46
1040
5.0
1000
ACAD_MTEXT_DEFINED_HEIGHT_END
  0
INSERT
  5
119
330
1F
100
AcDbEntity
  8
0
100
AcDbBlockReference
  2
*G24
 10
0.0
 20
0.0
 30
0.0
  0
INSERT
  5
11E
330
1F
100
AcDbEntity
  8
0
100
AcDbBlockReference
  2
*G25
 10
0.0
 20
0.0
 30
0.0
  0
INSERT
  5
123
330
1F
100
AcDbEntity
  8
0
100
AcDbBlockReference
  2
*G26
 10
0.0
 20
0.0
 30
0.0
  0
INSERT
  5
128
330
1F
100
AcDbEntity
  8
0
100
AcDbBlockReference
  2
*G27
 10
0.0
 20
0.0
 30
0.0
  0
INSERT
  5
12D
330
1F
100
AcDbEntity
  8
0
100
AcDbBlockReference
  2
*G28
 10
0.0
 20
0.0
 30
0.0
  0
LINE
  5
12E
330
1F
100
AcDbEntity
  8
1
  6
Continuous
 62
     7
370
    30
100
AcDbLine
 10
281.9592391304345
 20
0.0
 30
0.0
 11
281.9592391304345
 21
195.0
 31
0.0
  0
LINE
  5
12F
330
1F
100
AcDbEntity
  8
1
  6
Continuous
 62
     7
370
    30
100
AcDbLine
 10
281.9592391304345
 20
195.0
 30
0.0
 11
0.0
 21
195.0
 31
0.0
  0
LINE
  5
130
330
1F
100
AcDbEntity
  8
1
  6
Continuous
 62
     7
370
    30
100
AcDbLine
 10
0.0
 20
0.0
 30
0.0
 11
281.9592391304345
 21
0.0
 31
0.0
  0
LINE
  5
131
330
1F
100
AcDbEntity
  8
1
  6
Continuous
 62
     7
370
    30
100
AcDbLine
 10
161.9592391304346
 20
47.0
 30
0.0
 11
161.9592391304346
 21
0.0
 31
0.0
  0
LINE
  5
132
330
1F
100
AcDbEntity
  8
1
  6
DASHDOT
 62
     7
370
     9
100
AcDbLine
 10
75.67720090293453
 20
74.91012457152416
 30
0.0
 11
75.67720090293453
 21
85.3273137697517
 31
0.0
  0
ARC
  5
133
330
1F
100
AcDbEntity
  8
1
  6
Continuous
 62
     7
370
    30
100
AcDbCircle
 10
60.67720081518607
 20
80.06379581042236
 30
0.0
 40
2.5
100
AcDbArc
 50
49.99999655447761
 51
130.0000003644207
  0
ARC
  5
134
330
1F
100
AcDbEntity
  8
1
  6
Continuous
 62
     7
370
    30
100
AcDbCircle
 10
90.67720079654283
 20
80.06379565381411
 30
0.0
 40
2.5
100
AcDbArc
 50
50.0000035309717
 51
129.9999990370076
  0
ARC
  5
135
330
1F
100
AcDbEntity
  8
1
  6
Continuous
 62
     7
370
    30
100
AcDbCircle
 10
90.67720094692551
 20
80.06379621432919
 30
0.0
 40
4.5
100
AcDbArc
 50
50.00000063292209
 51
130.0000014110021
  0
ARC
  5
136
330
1F
100
AcDbEntity
  8
1
  6
Continuous
 62
     7
370
    30
100
AcDbCircle
 10
60.67720042556953
 20
80.0637954173499
 30
0.0
 40
4.5
100
AcDbArc
 50
50.00000124092682
 51
129.999999920657
  0
LINE
  5
137
330
1F
100
AcDbEntity
  8
1
  6
Continuous
 62
     7
370
    30
100
AcDbLine
 10
54.40438349811263
 20
78.06379528598313
 30
0.0
 11
59.07023177878897
 21
81.97890690799892
 31
0.0
  0
LINE
  5
138
330
1F
100
AcDbEntity
  8
1
  6
Continuous
 62
     7
370
    30
100
AcDbLine
 10
92.28416970273648
 20
81.97890686064437
 30
0.0
 11
96.95001835425006
 21
78.06379546802822
 31
0.0
  0
LINE
  5
139
330
1F
100
AcDbEntity
  8
1
  6
Continuous
 62
     7
370
    30
100
AcDbLine
 10
87.78465661844315
 20
83.51099613713097
 30
0.0
 11
83.67644309180386
 21
80.06379550972531
 31
0.0
  0
LINE
  5
13A
330
1F
100
AcDbEntity
  8
1
  6
Continuous
 62
     7
370
    30
100
AcDbLine
 10
67.6779578271401
 20
80.06379541734987
 30
0.0
 11
63.56974459449861
 21
83.51099547403277
 31
0.0
  0
LINE
  5
13B
330
1F
100
AcDbEntity
  8
1
  6
Continuous
 62
     7
370
    30
100
AcDbLine
 10
67.67795755400806
 20
80.06379541734987
 30
0.0
 11
83.67644316931609
 21
80.06379541734987
 31
0.0
  0
LINE
  5
13C
330
1F
100
AcDbEntity
  8
1
  6
Continuous
 62
     7
370
    30
100
AcDbLine
 10
84.96201834725953
 20
78.53170650950477
 30
0.0
 11
89.07023180451449
 21
81.97890678862052
 31
0.0
  0
ARC
  5
13D
330
1F
100
AcDbEntity
  8
1
  6
Continuous
 62
     7
370
    30
100
AcDbCircle
 10
83.67644315363685
 20
80.06379541734987
 30
0.0
 40
2.0
100
AcDbArc
 50
269.9999999999998
 51
309.9999990370079
  0
LINE
  5
13E
330
1F
100
AcDbEntity
  8
1
  6
Continuous
 62
     7
370
    30
100
AcDbLine
 10
62.28416995456897
 20
81.97890682158356
 30
0.0
 11
66.39238269127424
 21
78.5317066084209
 31
0.0
  0
LINE
  5
13F
330
1F
100
AcDbEntity
  8
1
  6
Continuous
 62
     7
370
    30
100
AcDbLine
 10
67.67795800278057
 20
78.06379541734987
 30
0.0
 11
83.67644315363685
 21
78.06379541734987
 31
0.0
  0
ARC
  5
140
330
1F
100
AcDbEntity
  8
1
  6
Continuous
 62
     7
370
    30
100
AcDbCircle
 10
67.67795800278057
 20
80.06379541734987
 30
0.0
 40
2.0
100
AcDbArc
 50
229.9999965544769
 51
269.9999999999998
  0
LINE
  5
141
330
1F
100
AcDbEntity
  8
1
  6
Continuous
 62
     7
370
    30
100
AcDbLine
 10
54.40438333439998
 20
78.06379541734987
 30
0.0
 11
53.11880828943483
 21
79.59588417663178
 31
0.0
  0
LINE
  5
142
330
1F
100
AcDbEntity
  8
1
  6
Continuous
 62
     7
370
    30
100
AcDbLine
 10
96.95001866240003
 20
78.06379541734987
 30
0.0
 11
98.2355937414594
 21
79.59588449796956
 31
0.0
  0
LINE
  5
143
330
1F
100
AcDbEntity
  8
1
  6
Continuous
 62
     7
370
    30
100
AcDbLine
 10
98.23559374145941
 20
79.59588449796956
 30
0.0
 11
93.56974515243519
 21
83.5109962403173
 31
0.0
  0
LINE
  5
144
330
1F
100
AcDbEntity
  8
1
  6
Continuous
 62
     7
370
    30
100
AcDbLine
 10
57.78465618675378
 20
83.51099541539088
 30
0.0
 11
53.11880828943482
 21
79.59588417663178
 31
0.0
  0
LINE
  5
145
330
1F
100
AcDbEntity
  8
1
  6
Continuous
 62
     7
370
    30
100
AcDbLine
 10
73.12720090293453
 20
80.06379541734987
 30
0.0
 11
73.12720090293453
 21
78.06379541734987
 31
0.0
  0
LINE
  5
146
330
1F
100
AcDbEntity
  8
1
  6
Continuous
 62
     7
370
    30
100
AcDbLine
 10
78.22720090293451
 20
80.06379541734987
 30
0.0
 11
78.22720090293451
 21
78.06379541734987
 31
0.0
  0
LINE
  5
147
330
1F
100
AcDbEntity
  8
1
  6
Continuous
 62
     7
370
    30
100
AcDbLine
 10
67.67795782714009
 20
127.0428893905192
 30
0.0
 11
67.67795782714009
 21
152.0428893905192
 31
0.0
  0
LINE
  5
148
330
1F
100
AcDbEntity
  8
1
  6
Continuous
 62
     7
370
    30
100
AcDbLine
 10
83.67644298171508
 20
127.0428893905192
 30
0.0
 11
83.67644298171508
 21
152.0428893905192
 31
0.0
  0
CIRCLE
  5
149
330
1F
100
AcDbEntity
  8
1
  6
Continuous
 62
     7
370
    30
100
AcDbCircle
 10
75.67720090293453
 20
139.5428893905192
 30
0.0
 40
2.549999999999997
  0
LINE
  5
14A
330
1F
100
AcDbEntity
  8
1
  6
DASHDOT
 62
     7
370
     9
100
AcDbLine
 10
50.2936808000488
 20
139.5428893905192
 30
0.0
 11
100.4834642629699
 21
139.5428893905192
 31
0.0
  0
LINE
  5
14B
330
1F
100
AcDbEntity
  8
1
  6
DASHDOT
 62
     7
370
     9
100
AcDbLine
 10
75.67720090293453
 20
154.1105300044072
 30
0.0
 11
75.67720090293453
 21
124.708306110084
 31
0.0
  0
LINE
  5
14C
330
1F
100
AcDbEntity
  8
1
  6
DASHDOT
 62
     7
370
     9
100
AcDbLine
 10
90.67720090293453
 20
141.7503594501057
 30
0.0
 11
90.67720090293453
 21
136.7875636972423
 31
0.0
  0
LINE
  5
14D
330
1F
100
AcDbEntity
  8
1
  6
DASHDOT
 62
     7
370
     9
100
AcDbLine
 10
60.67720090293453
 20
142.1249100729634
 30
0.0
 11
60.67720090293453
 21
136.5066507300991
 31
0.0
  0
LINE
  5
14E
330
1F
100
AcDbEntity
  8
1
  6
DASHDOT
 62
     7
370
     9
100
AcDbLine
 10
160.1254720846867
 20
87.02370151552213
 30
0.0
 11
160.1254720846867
 21
76.48946524765157
 31
0.0
  0
LINE
  5
14F
330
1F
100
AcDbEntity
  8
1
  6
Continuous
 62
     7
370
    30
100
AcDbLine
 10
147.6254720846867
 20
84.56379541734987
 30
0.0
 11
172.6254720846867
 21
84.56379541734987
 31
0.0
  0
DIMENSION
  5
15A
330
1F
100
AcDbEntity
  8
1
  6
Continuous
 62
     7
370
     9
100
AcDbDimension
280
     0
  2
Dim1
 10
33.11880852704399
 20
78.06379541734992
 30
0.0
 11
33.11880852704398
 21
81.31379541734992
 31
0.0
 70
   160
  1
<>
 71
     8
 42
-1.0
 73
     0
 74
     0
 75
     0
 53
89.99999999999994
  3
Standard
100
AcDbAlignedDimension
 13
60.67720090293466
 23
84.56379541734987
 33
0.0
 14
54.40438333439998
 24
78.06379541734987
 34
0.0
 50
-89.99999999999987
100
AcDbRotatedDimension
1001
ACAD
1000
DSTYLE
1002
{
1070
   279
1070
     1
1070
   340
1005
150
1070
   140
1040
4.0
1070
    40
1040
1.0
1070
   147
1040
0.0
1070
    76
1070
     0
1070
    75
1070
     0
1070
   344
1005
7C
1070
   343
1005
7C
1070
   173
1070
     1
1070
   289
1070
     2
1070
   288
1070
     1
1070
    77
1070
     1
1070
   172
1070
     1
1070
   174
1070
     0
1070
    74
1070
     0
1070
    73
1070
     0
1070
   284
1070
     8
1070
    78
1070
     8
1070
    42
1040
2.0
1070
    44
1040
2.0
1070
    43
1040
10.0
1070
   271
1070
     2
1070
    41
1040
3.0
1002
}
  0
DIMENSION
  5
164
330
1F
100
AcDbEntity
  8
1
  6
Continuous
 62
     7
370
     9
100
AcDbDimension
280
     0
  2
Dim2
 10
43.11880852704399
 20
78.06379555807615
 30
0.0
 11
43.11880852704398
 21
80.31379568424927
 31
0.0
 70
   160
  1
<>
 71
     8
 42
-1.0
 73
     0
 74
     0
 75
     0
 53
90.0
  3
Standard
100
AcDbAlignedDimension
 13
60.67720090293466
 23
82.56379581042236
 33
0.0
 14
54.40438382238043
 24
78.06379555807615
 34
0.0
 50
-89.99999999999982
100
AcDbRotatedDimension
1001
ACAD
1000
DSTYLE
1002
{
1070
   279
1070
     1
1070
   340
1005
150
1070
   140
1040
4.0
1070
    40
1040
1.0
1070
   147
1040
0.0
1070
    76
1070
     0
1070
    75
1070
     0
1070
   344
1005
7C
1070
   343
1005
7C
1070
   173
1070
     1
1070
   289
1070
     2
1070
   288
1070
     1
1070
    77
1070
     1
1070
   172
1070
     1
1070
   174
1070
     0
1070
    74
1070
     0
1070
    73
1070
     0
1070
   284
1070
     8
1070
    78
1070
     8
1070
    42
1040
2.0
1070
    44
1040
2.0
1070
    43
1040
10.0
1070
   271
1070
     2
1070
    41
1040
3.0
1002
}
  0
LINE
  5
165
330
1F
100
AcDbEntity
  8
1
  6
DASHDOT
 62
     7
370
     9
100
AcDbLine
 10
60.67720090293453
 20
87.14823863427193
 30
0.0
 11
60.67720090293453
 21
79.59588460095557
 31
0.0
  0
LINE
  5
166
330
1F
100
AcDbEntity
  8
1
  6
DASHDOT
 62
     7
370
     9
100
AcDbLine
 10
90.67987915775706
 20
87.14823863427193
 30
0.0
 11
90.67987915775706
 21
79.59588460095557
 31
0.0
  0
DIMENSION
  5
170
330
1F
100
AcDbEntity
  8
1
  6
Continuous
 62
     7
370
     9
100
AcDbDimension
280
     0
  2
Dim3
 10
90.67987915775696
 20
68.06379541734987
 30
0.0
 11
75.6785400303457
 21
68.06379541734987
 31
0.0
 70
   160
  1
<>
 71
     8
 42
-1.0
 73
     0
 74
     0
 75
     0
  3
Standard
100
AcDbAlignedDimension
 13
60.67720090293453
 23
79.59588460095557
 33
0.0
 14
90.67987915775706
 24
79.59588460095557
 34
0.0
100
AcDbRotatedDimension
1001
ACAD
1000
DSTYLE
1002
{
1070
   279
1070
     1
1070
   340
1005
150
1070
   140
1040
4.0
1070
    40
1040
1.0
1070
   147
1040
0.0
1070
    76
1070
     0
1070
    75
1070
     0
1070
   344
1005
7C
1070
   343
1005
7C
1070
   173
1070
     1
1070
   289
1070
     2
1070
   288
1070
     1
1070
    77
1070
     1
1070
   172
1070
     1
1070
   174
1070
     0
1070
    74
1070
     0
1070
    73
1070
     0
1070
   284
1070
     8
1070
    78
1070
     8
1070
    42
1040
2.0
1070
    44
1040
2.0
1070
    43
1040
10.0
1070
   271
1070
     2
1070
    41
1040
3.0
1002
}
  0
DIMENSION
  5
17A
330
1F
100
AcDbEntity
  8
1
  6
Continuous
 62
     7
370
     9
100
AcDbDimension
280
     0
  2
Dim4
 10
98.23559413759986
 20
58.06379541734987
 30
0.0
 11
75.67720133232183
 21
58.06379541734987
 31
0.0
 70
   160
  1
<>
 71
     8
 42
-1.0
 73
     0
 74
     0
 75
     0
  3
Standard
100
AcDbAlignedDimension
 13
53.11880852704398
 23
79.59588389346021
 33
0.0
 14
98.23559413760003
 24
79.59588460095557
 34
0.0
100
AcDbRotatedDimension
1001
ACAD
1000
DSTYLE
1002
{
1070
   279
1070
     1
1070
   340
1005
150
1070
   140
1040
4.0
1070
    40
1040
1.0
1070
   147
1040
0.0
1070
    76
1070
     0
1070
    75
1070
     0
1070
   344
1005
7C
1070
   343
1005
7C
1070
   173
1070
     1
1070
   289
1070
     2
1070
   288
1070
     1
1070
    77
1070
     1
1070
   172
1070
     1
1070
   174
1070
     0
1070
    74
1070
     0
1070
    73
1070
     0
1070
   284
1070
     8
1070
    78
1070
     8
1070
    42
1040
2.0
1070
    44
1040
2.0
1070
    43
1040
10.0
1070
   271
1070
     2
1070
    41
1040
3.0
1002
}
  0
DIMENSION
  5
181
330
1F
100
AcDbEntity
  8
1
  6
Continuous
 62
     7
370
     9
100
AcDbDimension
280
     0
  2
Dim5
 10
90.67720079654283
 20
80.06379565381411
 30
0.0
 11
93.55920582560046
 21
94.07739037087507
 31
0.0
 70
   164
  1
<>
 71
     5
 42
-1.0
 73
     0
 74
     0
 75
     0
  3
Standard
100
AcDbRadialDimension
 15
91.53225118360623
 25
82.41302719531502
 35
0.0
 40
0.0
1001
ACAD
1000
DSTYLE
1002
{
1070
   340
1005
150
1070
   140
1040
4.0
1070
    40
1040
1.0
1070
   147
1040
0.0
1070
    76
1070
     1
1070
    75
1070
     1
1070
   344
1005
7C
1070
   343
1005
7C
1070
   173
1070
     1
1070
   289
1070
     2
1070
   288
1070
     1
1070
    77
1070
     1
1070
   172
1070
     1
1070
   174
1070
     0
1070
    74
1070
     0
1070
    73
1070
     0
1070
   284
1070
     8
1070
    78
1070
     8
1070
    42
1040
0.0
1070
    44
1040
0.0
1070
    43
1040
10.0
1070
   271
1070
     2
1070
    41
1040
3.0
1002
}
  0
DIMENSION
  5
188
330
1F
100
AcDbEntity
  8
1
  6
Continuous
 62
     7
370
     9
100
AcDbDimension
280
     0
  2
Dim6
 10
90.67720094692551
 20
80.06379621432919
 30
0.0
 11
81.14478131266877
 21
91.34632679088315
 31
0.0
 70
   164
  1
<>
 71
     5
 42
-1.0
 73
     0
 74
     0
 75
     0
  3
Standard
100
AcDbRadialDimension
 15
88.26017912661278
 25
83.85958407986278
 35
0.0
 40
0.0
1001
ACAD
1000
DSTYLE
1002
{
1070
   340
1005
150
1070
   140
1040
4.0
1070
    40
1040
1.0
1070
   147
1040
0.0
1070
    76
1070
     1
1070
    75
1070
     1
1070
   344
1005
7C
1070
   343
1005
7C
1070
   173
1070
     1
1070
   289
1070
     2
1070
   288
1070
     1
1070
    77
1070
     1
1070
   172
1070
     1
1070
   174
1070
     0
1070
    74
1070
     0
1070
    73
1070
     0
1070
   284
1070
     8
1070
    78
1070
     8
1070
    42
1040
0.0
1070
    44
1040
0.0
1070
    43
1040
10.0
1070
   271
1070
     2
1070
    41
1040
3.0
1002
}
  0
DIMENSION
  5
192
330
1F
100
AcDbEntity
  8
1
  6
Continuous
 62
     7
370
     9
100
AcDbDimension
280
     0
  2
Dim7
 10
69.33189243642664
 20
78.06379541734987
 30
0.0
 11
67.0197669173786
 21
86.81530474728737
 31
0.0
 70
   160
  1
<>
 71
     5
 42
-1.0
 73
     0
 74
     0
 75
     0
 53
89.99999999999991
  3
Standard
100
AcDbAlignedDimension
 13
68.95734181356902
 23
80.06379541734987
 33
0.0
 14
68.52036608690179
 24
78.06379541734987
 34
0.0
 50
-89.99999999999991
100
AcDbRotatedDimension
1001
ACAD
1000
DSTYLE
1002
{
1070
   279
1070
     2
1070
   340
1005
150
1070
   140
1040
4.0
1070
    40
1040
1.0
1070
   147
1040
0.0
1070
    76
1070
     0
1070
    75
1070
     0
1070
   344
1005
7C
1070
   343
1005
7C
1070
   173
1070
     1
1070
   289
1070
     2
1070
   288
1070
     1
1070
    77
1070
     1
1070
   172
1070
     1
1070
   174
1070
     0
1070
    74
1070
     0
1070
    73
1070
     0
1070
   284
1070
     8
1070
    78
1070
     8
1070
    42
1040
2.0
1070
    44
1040
2.0
1070
    43
1040
10.0
1070
   271
1070
     2
1070
    41
1040
3.0
1002
}
  0
DIMENSION
  5
19C
330
1F
100
AcDbEntity
  8
1
  6
Continuous
 62
     7
370
     9
100
AcDbDimension
280
     0
  2
Dim8
 10
33.118808527044
 20
127.0428893905192
 30
0.0
 11
33.11880852704398
 21
139.5428893905192
 31
0.0
 70
   160
  1
<>
 71
     8
 42
-1.0
 73
     0
 74
     0
 75
     0
 53
89.99999999999991
  3
Standard
100
AcDbAlignedDimension
 13
53.11880852704398
 23
152.0428893905192
 33
0.0
 14
53.11880852704398
 24
127.0428893905192
 34
0.0
 50
-89.99999999999991
100
AcDbRotatedDimension
1001
ACAD
1000
DSTYLE
1002
{
1070
   279
1070
     1
1070
   340
1005
150
1070
   140
1040
4.0
1070
    40
1040
1.0
1070
   147
1040
0.0
1070
    76
1070
     0
1070
    75
1070
     0
1070
   344
1005
7C
1070
   343
1005
7C
1070
   173
1070
     1
1070
   289
1070
     2
1070
   288
1070
     1
1070
    77
1070
     1
1070
   172
1070
     1
1070
   174
1070
     0
1070
    74
1070
     0
1070
    73
1070
     0
1070
   284
1070
     8
1070
    78
1070
     8
1070
    42
1040
2.0
1070
    44
1040
2.0
1070
    43
1040
10.0
1070
   271
1070
     2
1070
    41
1040
3.0
1002
}
  0
DIMENSION
  5
1A6
330
1F
100
AcDbEntity
  8
1
  6
Continuous
 62
     7
370
     9
100
AcDbDimension
280
     0
  2
Dim9
 10
43.118808527044
 20
139.5428893905192
 30
0.0
 11
43.11880852704398
 21
145.7928893905192
 31
0.0
 70
   160
  1
<>
 71
     8
 42
-1.0
 73
     0
 74
     0
 75
     0
 53
89.99999999999991
  3
Standard
100
AcDbAlignedDimension
 13
53.11880852704398
 23
152.0428893905192
 33
0.0
 14
46.80358283763799
 24
139.5428893905192
 34
0.0
 50
-89.99999999999991
100
AcDbRotatedDimension
1001
ACAD
1000
DSTYLE
1002
{
1070
   279
1070
     1
1070
   340
1005
150
1070
   140
1040
4.0
1070
    40
1040
1.0
1070
   147
1040
0.0
1070
    76
1070
     0
1070
    75
1070
     0
1070
   344
1005
7C
1070
   343
1005
7C
1070
   173
1070
     1
1070
   289
1070
     2
1070
   288
1070
     1
1070
    77
1070
     1
1070
   172
1070
     1
1070
   174
1070
     0
1070
    74
1070
     0
1070
    73
1070
     0
1070
   284
1070
     8
1070
    78
1070
     8
1070
    42
1040
2.0
1070
    44
1040
2.0
1070
    43
1040
10.0
1070
   271
1070
     2
1070
    41
1040
3.0
1002
}
  0
DIMENSION
  5
1B0
330
1F
100
AcDbEntity
  8
1
  6
Continuous
 62
     7
370
     9
100
AcDbDimension
280
     0
  2
Dim10
 10
98.23559361872555
 20
182.0428893905192
 30
0.0
 11
75.67720107288478
 21
182.0428893905192
 31
0.0
 70
   160
  1
<>
 71
     8
 42
-1.0
 73
     0
 74
     0
 75
     0
  3
Standard
100
AcDbAlignedDimension
 13
53.11880852704398
 23
152.0428893905192
 33
0.0
 14
98.23559361872549
 24
152.0428893905192
 34
0.0
100
AcDbRotatedDimension
1001
ACAD
1000
DSTYLE
1002
{
1070
   279
1070
     1
1070
   340
1005
150
1070
   140
1040
4.0
1070
    40
1040
1.0
1070
   147
1040
0.0
1070
    76
1070
     0
1070
    75
1070
     0
1070
   344
1005
7C
1070
   343
1005
7C
1070
   173
1070
     1
1070
   289
1070
     2
1070
   288
1070
     1
1070
    77
1070
     1
1070
   172
1070
     1
1070
   174
1070
     0
1070
    74
1070
     0
1070
    73
1070
     0
1070
   284
1070
     8
1070
    78
1070
     8
1070
    42
1040
2.0
1070
    44
1040
2.0
1070
    43
1040
10.0
1070
   271
1070
     2
1070
    41
1040
3.0
1002
}
  0
DIMENSION
  5
1BA
330
1F
100
AcDbEntity
  8
1
  6
Continuous
 62
     7
370
     9
100
AcDbDimension
280
     0
  2
Dim11
 10
90.67720090293457
 20
172.0428893905192
 30
0.0
 11
75.67720090293457
 21
172.0428893905192
 31
0.0
 70
   160
  1
<>
 71
     8
 42
-1.0
 73
     0
 74
     0
 75
     0
  3
Standard
100
AcDbAlignedDimension
 13
60.67720090293453
 23
142.1249100729634
 33
0.0
 14
90.67720090293453
 24
144.0285626502869
 34
0.0
100
AcDbRotatedDimension
1001
ACAD
1000
DSTYLE
1002
{
1070
   279
1070
     1
1070
   340
1005
150
1070
   140
1040
4.0
1070
    40
1040
1.0
1070
   147
1040
0.0
1070
    76
1070
     0
1070
    75
1070
     0
1070
   344
1005
7C
1070
   343
1005
7C
1070
   173
1070
     1
1070
   289
1070
     2
1070
   288
1070
     1
1070
    77
1070
     1
1070
   172
1070
     1
1070
   174
1070
     0
1070
    74
1070
     0
1070
    73
1070
     0
1070
   284
1070
     8
1070
    78
1070
     8
1070
    42
1040
2.0
1070
    44
1040
2.0
1070
    43
1040
10.0
1070
   271
1070
     2
1070
    41
1040
3.0
1002
}
  0
DIMENSION
  5
1C4
330
1F
100
AcDbEntity
  8
1
  6
Continuous
 62
     7
370
     9
100
AcDbDimension
280
     0
  2
Dim12
 10
83.6764429817151
 20
162.0428893905192
 30
0.0
 11
75.6772004044276
 21
162.0428893905192
 31
0.0
 70
   160
  1
<>
 71
     8
 42
-1.0
 73
     0
 74
     0
 75
     0
  3
Standard
100
AcDbAlignedDimension
 13
67.67795782714009
 23
152.0428893905192
 33
0.0
 14
83.67644298171508
 24
152.0428893905192
 34
0.0
100
AcDbRotatedDimension
1001
ACAD
1000
DSTYLE
1002
{
1070
   279
1070
     1
1070
   340
1005
150
1070
   140
1040
4.0
1070
    40
1040
1.0
1070
   147
1040
0.0
1070
    76
1070
     0
1070
    75
1070
     0
1070
   344
1005
7C
1070
   343
1005
7C
1070
   173
1070
     1
1070
   289
1070
     2
1070
   288
1070
     1
1070
    77
1070
     1
1070
   172
1070
     1
1070
   174
1070
     0
1070
    74
1070
     0
1070
    73
1070
     0
1070
   284
1070
     8
1070
    78
1070
     8
1070
    42
1040
2.0
1070
    44
1040
2.0
1070
    43
1040
10.0
1070
   271
1070
     2
1070
    41
1040
3.0
1002
}
  0
DIMENSION
  5
1CE
330
1F
100
AcDbEntity
  8
1
  6
Continuous
 62
     7
370
     9
100
AcDbDimension
280
     0
  2
Dim13
 10
60.67719995478006
 20
48.06379541734989
 30
0.0
 11
60.67720000855544
 21
50.06379541734987
 31
0.0
 70
   165
  1
100ﾟ
 71
     5
 42
-1.0
 73
     0
 74
     0
 75
     0
  3
Standard
100
AcDb3PointAngularDimension
 13
52.87229462005136
 23
76.77822005686546
 33
0.0
 14
67.92447150020321
 24
77.24613129691458
 34
0.0
 15
60.67720090293453
 25
83.32731412480001
 35
0.0
1001
ACAD
1000
DSTYLE
1002
{
1070
   340
1005
150
1070
   140
1040
4.0
1070
    40
1040
1.0
1070
   147
1040
0.0
1070
    76
1070
     0
1070
    75
1070
     0
1070
   344
1005
7C
1070
   343
1005
7C
1070
   173
1070
     1
1070
   289
1070
     2
1070
   288
1070
     1
1070
    77
1070
     1
1070
   172
1070
     1
1070
   174
1070
     0
1070
    74
1070
     0
1070
    73
1070
     0
1070
   284
1070
     8
1070
    78
1070
     8
1070
    42
1040
1.999999999999994
1070
    44
1040
1.999999999999998
1070
    43
1040
10.0
1070
   271
1070
     2
1070
    41
1040
3.0
1002
}
  0
LINE
  5
1CF
330
1F
100
AcDbEntity
  8
1
  6
Continuous
 62
     7
370
    30
100
AcDbLine
 10
71.75297855891755
 20
149.9731479847227
 30
0.0
 11
79.52143592189019
 21
149.9731479847227
 31
0.0
  0
LINE
  5
1D0
330
1F
100
AcDbEntity
  8
1
  6
Continuous
 62
     7
370
    30
100
AcDbLine
 10
79.52143592189041
 20
146.9755446628153
 30
0.0
 11
71.75297855891732
 21
146.9755446628153
 31
0.0
  0
ARC
  5
1D1
330
1F
100
AcDbEntity
  8
1
  6
Continuous
 62
     7
370
    30
100
AcDbCircle
 10
71.75297855891732
 20
148.474346323769
 30
0.0
 40
1.49880166095366
100
AcDbArc
 50
89.9999999999913
 51
269.9999999999998
  0
ARC
  5
1D2
330
1F
100
AcDbEntity
  8
1
  6
Continuous
 62
     7
370
    30
100
AcDbCircle
 10
79.52143592189019
 20
148.474346323769
 30
0.0
 40
1.49880166095366
100
AcDbArc
 50
269.9999999999998
 51
89.9999999999913
  0
INSERT
  5
1D3
330
1F
100
AcDbEntity
  8
1
  6
Continuous
 62
     7
370
     9
100
AcDbBlockReference
  2
_OPEN
 10
78.22720090293477
 20
139.5428893905192
 30
0.0
 41
4.0
 42
4.0
 43
4.0
 50
210.9548460131377
  0
POLYLINE
  5
1D4
330
1F
100
AcDbEntity
  8
1
  6
Continuous
 62
     7
370
     9
100
AcDb2dPolyline
 66
     1
 10
0.0
 20
0.0
 30
0.0
  0
VERTEX
  5
1D5
330
1D4
100
AcDbEntity
  8
1
  6
Continuous
 62
     7
370
     9
100
AcDbVertex
100
AcDb2dVertex
 10
78.22720090293477
 20
139.5428893905192
 30
0.0
  0
VERTEX
  5
1D6
330
1D4
100
AcDbEntity
  8
1
  6
Continuous
 62
     7
370
     9
100
AcDbVertex
100
AcDb2dVertex
 10
115.7404233512
 20
162.0428893905192
 30
0.0
  0
VERTEX
  5
1D7
330
1D4
100
AcDbEntity
  8
1
  6
Continuous
 62
     7
370
     9
100
AcDbVertex
100
AcDb2dVertex
 10
123.2404233512
 20
162.0428893905192
 30
0.0
  0
SEQEND
  5
1D8
330
1D4
100
AcDbEntity
  8
1
  6
Continuous
 62
     7
370
     9
  0
MTEXT
  5
1D9
330
1F
100
AcDbEntity
  8
1
  6
Continuous
 62
     7
370
     9
100
AcDbMText
 10
115.7404233512
 20
162.0428893905192
 30
0.0
 40
4.0
 41
10.98367867867868
 46
4.0
 71
     7
 72
     1
  1
{\fＭＳ 明朝;\W0.750000;\T0.750000;φ5.1}
 73
     1
 44
1.0
1001
ACAD
1000
ACAD_MTEXT_DEFINED_HEIGHT_BEGIN
1070
    46
1040
4.0
1000
ACAD_MTEXT_DEFINED_HEIGHT_END
  0
DIMENSION
  5
1E3
330
1F
100
AcDbEntity
  8
1
  6
Continuous
 62
     7
370
     9
100
AcDbDimension
280
     0
  2
Dim14
 10
182.6254720846867
 20
78.06379541734978
 30
0.0
 11
182.6254720846867
 21
81.31379541734978
 31
0.0
 70
   160
  1
<>
 71
     8
 42
-1.0
 73
     0
 74
     0
 75
     0
 53
89.99999999999991
  3
Standard
100
AcDbAlignedDimension
 13
172.6254720846867
 23
84.56379541734987
 33
0.0
 14
172.6254720846867
 24
78.06379541734987
 34
0.0
 50
-89.99999999999991
100
AcDbRotatedDimension
1001
ACAD
1000
DSTYLE
1002
{
1070
   279
1070
     1
1070
   340
1005
150
1070
   140
1040
4.0
1070
    40
1040
1.0
1070
   147
1040
0.0
1070
    76
1070
     0
1070
    75
1070
     0
1070
   344
1005
7C
1070
   343
1005
7C
1070
   173
1070
     1
1070
   289
1070
     2
1070
   288
1070
     1
1070
    77
1070
     1
1070
   172
1070
     1
1070
   174
1070
     0
1070
    74
1070
     0
1070
    73
1070
     0
1070
   284
1070
     8
1070
    78
1070
     8
1070
    42
1040
2.0
1070
    44
1040
2.0
1070
    43
1040
10.0
1070
   271
1070
     2
1070
    41
1040
3.0
1002
}
  0
DIMENSION
  5
1ED
330
1F
100
AcDbEntity
  8
1
  6
Continuous
 62
     7
370
     9
100
AcDbDimension
280
     0
  2
Dim15
 10
172.6254720846867
 20
104.5637954173499
 30
0.0
 11
160.1254720846867
 21
104.5637954173499
 31
0.0
 70
   160
  1
<>
 71
     8
 42
-1.0
 73
     0
 74
     0
 75
     0
  3
Standard
100
AcDbAlignedDimension
 13
147.6254720846867
 23
84.56379541734987
 33
0.0
 14
172.6254720846867
 24
84.56379541734987
 34
0.0
100
AcDbRotatedDimension
1001
ACAD
1000
DSTYLE
1002
{
1070
   279
1070
     1
1070
   340
1005
150
1070
   140
1040
4.0
1070
    40
1040
1.0
1070
   147
1040
0.0
1070
    76
1070
     0
1070
    75
1070
     0
1070
   344
1005
7C
1070
   343
1005
7C
1070
   173
1070
     1
1070
   289
1070
     2
1070
   288
1070
     1
1070
    77
1070
     1
1070
   172
1070
     1
1070
   174
1070
     0
1070
    74
1070
     0
1070
    73
1070
     0
1070
   284
1070
     8
1070
    78
1070
     8
1070
    42
1040
2.0
1070
    44
1040
2.0
1070
    43
1040
10.0
1070
   271
1070
     2
1070
    41
1040
3.0
1002
}
  0
DIMENSION
  5
1F7
330
1F
100
AcDbEntity
  8
1
  6
Continuous
 62
     7
370
     9
100
AcDbDimension
280
     0
  2
Dim16
 10
160.1254720846867
 20
94.56379541734987
 30
0.0
 11
153.8754720846867
 21
94.56379541734987
 31
0.0
 70
   160
  1
<>
 71
     8
 42
-1.0
 73
     0
 74
     0
 75
     0
  3
Standard
100
AcDbAlignedDimension
 13
147.6254720846867
 23
84.56379541734987
 33
0.0
 14
160.1254720846867
 24
87.02370151552213
 34
0.0
100
AcDbRotatedDimension
1001
ACAD
1000
DSTYLE
1002
{
1070
   279
1070
     1
1070
   340
1005
150
1070
   140
1040
4.0
1070
    40
1040
1.0
1070
   147
1040
0.0
1070
    76
1070
     0
1070
    75
1070
     0
1070
   344
1005
7C
1070
   343
1005
7C
1070
   173
1070
     1
1070
   289
1070
     2
1070
   288
1070
     1
1070
    77
1070
     1
1070
   172
1070
     1
1070
   174
1070
     0
1070
    74
1070
     0
1070
    73
1070
     0
1070
   284
1070
     8
1070
    78
1070
     8
1070
    42
1040
2.0
1070
    44
1040
2.0
1070
    43
1040
10.0
1070
   271
1070
     2
1070
    41
1040
3.0
1002
}
  0
DIMENSION
  5
201
330
1F
100
AcDbEntity
  8
1
  6
Continuous
 62
     7
370
     9
100
AcDbDimension
280
     0
  2
Dim17
 10
172.6254720846867
 20
94.56379541734987
 30
0.0
 11
166.3754720846867
 21
94.56379541734987
 31
0.0
 70
   160
  1
<>
 71
     8
 42
-1.0
 73
     0
 74
     0
 75
     0
  3
Standard
100
AcDbAlignedDimension
 13
160.1254720846867
 23
87.02370151552213
 33
0.0
 14
172.6254720846867
 24
84.56379541734987
 34
0.0
100
AcDbRotatedDimension
1001
ACAD
1000
DSTYLE
1002
{
1070
   279
1070
     1
1070
   340
1005
150
1070
   140
1040
4.0
1070
    40
1040
1.0
1070
   147
1040
0.0
1070
    76
1070
     0
1070
    75
1070
     0
1070
   344
1005
7C
1070
   343
1005
7C
1070
   173
1070
     1
1070
   289
1070
     2
1070
   288
1070
     1
1070
    77
1070
     1
1070
   172
1070
     1
1070
   174
1070
     0
1070
    74
1070
     0
1070
    73
1070
     0
1070
   284
1070
     8
1070
    78
1070
     8
1070
    42
1040
2.0
1070
    44
1040
2.0
1070
    43
1040
10.0
1070
   271
1070
     2
1070
    41
1040
3.0
1002
}
  0
MTEXT
  5
202
330
1F
100
AcDbEntity
  8
1
  6
DASHDOT
 62
     7
370
     9
100
AcDbMText
 10
178.1972430443289
 20
25.40000000000001
 30
0.0
 40
5.0
 41
23.86744244244244
 46
5.0
 71
     7
 72
     1
  1
{\fＭＳ 明朝;\T0.750000;SUS304}
 73
     1
 44
1.0
1001
ACAD
1000
ACAD_MTEXT_DEFINED_HEIGHT_BEGIN
1070
    46
1040
5.0
1000
ACAD_MTEXT_DEFINED_HEIGHT_END
  0
MTEXT
  5
203
330
1F
100
AcDbEntity
  8
1
  6
DASHDOT
 62
     7
370
     9
100
AcDbMText
 10
214.6777224963837
 20
23.0
 30
0.0
 40
7.0
 41
83.82052448059558
 46
7.0
 71
     7
 72
     1
  1
{\fＭＳ 明朝;\W0.857143;\T0.750000;ダブルサドル-30P}
 11
0.999999756813434
 21
-0.000697404526000874
 31
0.0
 73
     1
 44
1.0
1001
ACAD
1000
ACAD_MTEXT_DEFINED_HEIGHT_BEGIN
1070
    46
1040
7.0
1000
ACAD_MTEXT_DEFINED_HEIGHT_END
  0
INSERT
  5
204
330
1F
100
AcDbEntity
  8
1
  6
Continuous
 62
     7
370
     9
100
AcDbBlockReference
  2
_OPEN
 10
97.98574317874214
 20
127.3816211865302
 30
0.0
 41
4.0
 42
4.0
 43
4.0
 50
135.9177107960286
  0
POLYLINE
  5
205
330
1F
100
AcDbEntity
  8
1
  6
Continuous
 62
     7
370
     9
100
AcDb2dPolyline
 66
     1
 10
0.0
 20
0.0
 30
0.0
  0
VERTEX
  5
206
330
205
100
AcDbEntity
  8
1
  6
Continuous
 62
     7
370
     9
100
AcDbVertex
100
AcDb2dVertex
 10
97.98574317874214
 20
127.3816211865302
 30
0.0
  0
VERTEX
  5
207
330
205
100
AcDbEntity
  8
1
  6
Continuous
 62
     7
370
     9
100
AcDbVertex
100
AcDb2dVertex
 10
113.3991026391329
 20
112.4542726825144
 30
0.0
  0
VERTEX
  5
208
330
205
100
AcDbEntity
  8
1
  6
Continuous
 62
     7
370
     9
100
AcDbVertex
100
AcDb2dVertex
 10
118.9255218348524
 20
112.4542726825144
 30
0.0
  0
SEQEND
  5
209
330
205
100
AcDbEntity
  8
1
  6
Continuous
 62
     7
370
     9
  0
MTEXT
  5
20A
330
1F
100
AcDbEntity
  8
1
  6
Continuous
 62
     7
370
     9
100
AcDbMText
 10
115.9255218348524
 20
112.8288233053721
 30
0.0
 40
4.0
 41
4.870855855855855
 46
4.0
 71
     7
 72
     1
  1
{\fＭＳ 明朝;\W0.750000;\T0.750000;R2}
 73
     1
 44
1.0
1001
ACAD
1000
ACAD_MTEXT_DEFINED_HEIGHT_BEGIN
1070
    46
1040
4.0
1000
ACAD_MTEXT_DEFINED_HEIGHT_END
  0
LINE
  5
20B
330
1F
100
AcDbEntity
  8
1
  6
Continuous
 62
     7
370
    30
100
AcDbLine
 10
147.6254720846867
 20
81.59588460095557
 30
0.0
 11
147.6254720846867
 21
84.56379541734987
 31
0.0
  0
ARC
  5
20C
330
1F
100
AcDbEntity
  8
1
  6
Continuous
 62
     7
370
    30
100
AcDbCircle
 10
149.6254720846867
 20
81.59588460095557
 30
0.0
 40
2.0
100
AcDbArc
 50
179.9999999999998
 51
269.9999999999998
  0
LINE
  5
20D
330
1F
100
AcDbEntity
  8
1
  6
Continuous
 62
     7
370
    30
100
AcDbLine
 10
147.6254720846867
 20
79.59588460095557
 30
0.0
 11
147.6254720846867
 21
80.06379541734987
 31
0.0
  0
ARC
  5
20E
330
1F
100
AcDbEntity
  8
1
  6
Continuous
 62
     7
370
    30
100
AcDbCircle
 10
149.6254720846867
 20
80.06379541734987
 30
0.0
 40
2.0
100
AcDbArc
 50
179.9999999999998
 51
269.9999999999998
  0
LINE
  5
20F
330
1F
100
AcDbEntity
  8
1
  6
Continuous
 62
     7
370
    30
100
AcDbLine
 10
147.6254720846867
 20
78.06379541734987
 30
0.0
 11
147.6254720846867
 21
81.43904447247573
 31
0.0
  0
LINE
  5
210
330
1F
100
AcDbEntity
  8
1
  6
Continuous
 62
     7
370
    30
100
AcDbLine
 10
147.6254720846867
 20
78.06379541734987
 30
0.0
 11
149.6254720846867
 21
78.06379541734987
 31
0.0
  0
LINE
  5
211
330
1F
100
AcDbEntity
  8
1
  6
Continuous
 62
     7
370
    30
100
AcDbLine
 10
149.6254720846867
 20
79.59588460095557
 30
0.0
 11
170.6254720846867
 21
79.59588460095557
 31
0.0
  0
LINE
  5
212
330
1F
100
AcDbEntity
  8
1
  6
Continuous
 62
     7
370
    30
100
AcDbLine
 10
172.6254720846867
 20
84.56379541734987
 30
0.0
 11
172.6254720846867
 21
81.59588460095557
 31
0.0
  0
ARC
  5
213
330
1F
100
AcDbEntity
  8
1
  6
Continuous
 62
     7
370
    30
100
AcDbCircle
 10
170.6254720846867
 20
81.59588460095557
 30
0.0
 40
2.0
100
AcDbArc
 50
269.9999999999998
 51
0.0
  0
LINE
  5
214
330
1F
100
AcDbEntity
  8
1
  6
Continuous
 62
     7
370
    30
100
AcDbLine
 10
170.6254720846867
 20
78.06379541734987
 30
0.0
 11
149.6254720846867
 21
78.06379541734987
 31
0.0
  0
LINE
  5
215
330
1F
100
AcDbEntity
  8
1
  6
Continuous
 62
     7
370
    30
100
AcDbLine
 10
172.6254720846867
 20
79.59588460095557
 30
0.0
 11
172.6254720846867
 21
80.06379541734987
 31
0.0
  0
ARC
  5
216
330
1F
100
AcDbEntity
  8
1
  6
Continuous
 62
     7
370
    30
100
AcDbCircle
 10
170.6254720846867
 20
80.06379541734987
 30
0.0
 40
2.0
100
AcDbArc
 50
269.9999999999998
 51
0.0
  0
LINE
  5
217
330
1F
100
AcDbEntity
  8
1
  6
Continuous
 62
     7
370
    30
100
AcDbLine
 10
172.6254720846867
 20
78.06379541734987
 30
0.0
 11
172.6254720846867
 21
81.59588460095557
 31
0.0
  0
LINE
  5
218
330
1F
100
AcDbEntity
  8
1
  6
Continuous
 62
     7
370
    30
100
AcDbLine
 10
172.6254720846867
 20
78.06379541734987
 30
0.0
 11
170.7019644402906
 21
78.06379541734987
 31
0.0
  0
ARC
  5
219
330
1F
100
AcDbEntity
  8
1
  6
Continuous
 62
     7
370
    30
100
AcDbCircle
 10
96.23559361872549
 20
129.0428893905192
 30
0.0
 40
2.0
100
AcDbArc
 50
269.9999999999993
 51
0.0
  0
LINE
  5
21A
330
1F
100
AcDbEntity
  8
1
  6
Continuous
 62
     7
370
    30
100
AcDbLine
 10
98.23559361872549
 20
150.0428893905192
 30
0.0
 11
98.23559361872549
 21
129.0428893905192
 31
0.0
  0
ARC
  5
21B
330
1F
100
AcDbEntity
  8
1
  6
Continuous
 62
     7
370
    30
100
AcDbCircle
 10
96.23559361872549
 20
150.0428893905192
 30
0.0
 40
2.0
100
AcDbArc
 50
0.0
 51
89.99999999999991
  0
LINE
  5
21C
330
1F
100
AcDbEntity
  8
1
  6
Continuous
 62
     7
370
    30
100
AcDbLine
 10
55.118808527044
 20
152.0428893905192
 30
0.0
 11
96.23559361872549
 21
152.0428893905192
 31
0.0
  0
ARC
  5
21D
330
1F
100
AcDbEntity
  8
1
  6
Continuous
 62
     7
370
    30
100
AcDbCircle
 10
55.11880852704398
 20
150.0428893905192
 30
0.0
 40
2.0
100
AcDbArc
 50
89.99999999999959
 51
179.9999999999998
  0
LINE
  5
21E
330
1F
100
AcDbEntity
  8
1
  6
Continuous
 62
     7
370
    30
100
AcDbLine
 10
53.11880852704398
 20
129.0428893905192
 30
0.0
 11
53.11880852704398
 21
150.0428893905192
 31
0.0
  0
LINE
  5
21F
330
1F
100
AcDbEntity
  8
1
  6
Continuous
 62
     7
370
    30
100
AcDbLine
 10
96.23559361872547
 20
127.0428893905192
 30
0.0
 11
55.11880852704398
 21
127.0428893905192
 31
0.0
  0
ARC
  5
220
330
1F
100
AcDbEntity
  8
1
  6
Continuous
 62
     7
370
    30
100
AcDbCircle
 10
55.11880852704398
 20
129.0428893905192
 30
0.0
 40
2.0
100
AcDbArc
 50
179.9999999999998
 51
269.9999999999998
  0
LINE
  5
221
330
1F
100
AcDbEntity
  8
1
  6
DASHDOT
 62
     7
370
     9
100
AcDbLine
 10
170.1655659865144
 20
139.5428893905192
 30
0.0
 11
180.699802254385
 21
139.5428893905192
 31
0.0
  0
LINE
  5
222
330
1F
100
AcDbEntity
  8
1
  6
Continuous
 62
     7
370
    30
100
AcDbLine
 10
172.6254720846867
 20
127.0428893905192
 30
0.0
 11
172.6254720846867
 21
152.0428893905192
 31
0.0
  0
DIMENSION
  5
22C
330
1F
100
AcDbEntity
  8
1
  6
Continuous
 62
     7
370
     9
100
AcDbDimension
280
     0
  2
Dim18
 10
179.1254720846868
 20
162.0428893905192
 30
0.0
 11
175.8754720846868
 21
162.0428893905192
 31
0.0
 70
   160
  1
<>
 71
     8
 42
-1.0
 73
     0
 74
     0
 75
     0
  3
Standard
100
AcDbAlignedDimension
 13
172.6254720846867
 23
152.0428893905192
 33
0.0
 14
179.1254720846867
 24
152.0428893905192
 34
0.0
100
AcDbRotatedDimension
1001
ACAD
1000
DSTYLE
1002
{
1070
   279
1070
     1
1070
   340
1005
150
1070
   140
1040
4.0
1070
    40
1040
1.0
1070
   147
1040
0.0
1070
    76
1070
     0
1070
    75
1070
     0
1070
   344
1005
7C
1070
   343
1005
7C
1070
   173
1070
     1
1070
   289
1070
     2
1070
   288
1070
     1
1070
    77
1070
     1
1070
   172
1070
     1
1070
   174
1070
     0
1070
    74
1070
     0
1070
    73
1070
     0
1070
   284
1070
     8
1070
    78
1070
     8
1070
    42
1040
2.0
1070
    44
1040
2.0
1070
    43
1040
10.0
1070
   271
1070
     2
1070
    41
1040
3.0
1002
}
  0
DIMENSION
  5
236
330
1F
100
AcDbEntity
  8
1
  6
Continuous
 62
     7
370
     9
100
AcDbDimension
280
     0
  2
Dim19
 10
152.6254720846867
 20
152.0428893905192
 30
0.0
 11
152.6254720846867
 21
139.5428893905192
 31
0.0
 70
   160
  1
<>
 71
     8
 42
-1.0
 73
     0
 74
     0
 75
     0
  3
Standard
100
AcDbAlignedDimension
 13
172.6254720846867
 23
127.0428893905192
 33
0.0
 14
172.6254720846867
 24
152.0428893905192
 34
0.0
 50
89.99999999999987
100
AcDbRotatedDimension
1001
ACAD
1000
DSTYLE
1002
{
1070
   279
1070
     1
1070
   340
1005
150
1070
   140
1040
4.0
1070
    40
1040
1.0
1070
   147
1040
0.0
1070
    76
1070
     0
1070
    75
1070
     0
1070
   344
1005
7C
1070
   343
1005
7C
1070
   173
1070
     1
1070
   289
1070
     2
1070
   288
1070
     1
1070
    77
1070
     1
1070
   172
1070
     1
1070
   174
1070
     0
1070
    74
1070
     0
1070
    73
1070
     0
1070
   284
1070
     8
1070
    78
1070
     8
1070
    42
1040
2.0
1070
    44
1040
2.0
1070
    43
1040
10.0
1070
   271
1070
     2
1070
    41
1040
3.0
1002
}
  0
DIMENSION
  5
240
330
1F
100
AcDbEntity
  8
1
  6
Continuous
 62
     7
370
     9
100
AcDbDimension
280
     0
  2
Dim20
 10
162.6254720846867
 20
139.5428893905192
 30
0.0
 11
162.6254720846867
 21
133.2928893905192
 31
0.0
 70
   160
  1
<>
 71
     8
 42
-1.0
 73
     0
 74
     0
 75
     0
  3
Standard
100
AcDbAlignedDimension
 13
172.6254720846867
 23
127.0428893905192
 33
0.0
 14
170.1655659865144
 24
139.5428893905192
 34
0.0
 50
89.99999999999987
100
AcDbRotatedDimension
1001
ACAD
1000
DSTYLE
1002
{
1070
   279
1070
     1
1070
   340
1005
150
1070
   140
1040
4.0
1070
    40
1040
1.0
1070
   147
1040
0.0
1070
    76
1070
     0
1070
    75
1070
     0
1070
   344
1005
7C
1070
   343
1005
7C
1070
   173
1070
     1
1070
   289
1070
     2
1070
   288
1070
     1
1070
    77
1070
     1
1070
   172
1070
     1
1070
   174
1070
     0
1070
    74
1070
     0
1070
    73
1070
     0
1070
   284
1070
     8
1070
    78
1070
     8
1070
    42
1040
2.0
1070
    44
1040
2.0
1070
    43
1040
10.0
1070
   271
1070
     2
1070
    41
1040
3.0
1002
}
  0
DIMENSION
  5
24A
330
1F
100
AcDbEntity
  8
1
  6
Continuous
 62
     7
370
     9
100
AcDbDimension
280
     0
  2
Dim21
 10
162.6254720846867
 20
152.0428893905192
 30
0.0
 11
162.6254720846867
 21
145.7928893905192
 31
0.0
 70
   160
  1
<>
 71
     8
 42
-1.0
 73
     0
 74
     0
 75
     0
  3
Standard
100
AcDbAlignedDimension
 13
170.1655659865144
 23
139.5428893905192
 33
0.0
 14
172.6254720846867
 24
152.0428893905192
 34
0.0
 50
89.99999999999987
100
AcDbRotatedDimension
1001
ACAD
1000
DSTYLE
1002
{
1070
   279
1070
     1
1070
   340
1005
150
1070
   140
1040
4.0
1070
    40
1040
1.0
1070
   147
1040
0.0
1070
    76
1070
     0
1070
    75
1070
     0
1070
   344
1005
7C
1070
   343
1005
7C
1070
   173
1070
     1
1070
   289
1070
     2
1070
   288
1070
     1
1070
    77
1070
     1
1070
   172
1070
     1
1070
   174
1070
     0
1070
    74
1070
     0
1070
    73
1070
     0
1070
   284
1070
     8
1070
    78
1070
     8
1070
    42
1040
2.0
1070
    44
1040
2.0
1070
    43
1040
10.0
1070
   271
1070
     2
1070
    41
1040
3.0
1002
}
  0
LINE
  5
24B
330
1F
100
AcDbEntity
  8
1
  6
Continuous
 62
     7
370
    30
100
AcDbLine
 10
175.593382901081
 20
127.0428893905192
 30
0.0
 11
172.6254720846867
 21
127.0428893905192
 31
0.0
  0
ARC
  5
24C
330
1F
100
AcDbEntity
  8
1
  6
Continuous
 62
     7
370
    30
100
AcDbCircle
 10
175.593382901081
 20
129.0428893905192
 30
0.0
 40
2.0
100
AcDbArc
 50
269.9999999999989
 51
0.0
  0
LINE
  5
24D
330
1F
100
AcDbEntity
  8
1
  6
Continuous
 62
     7
370
    30
100
AcDbLine
 10
177.593382901081
 20
127.0428893905192
 30
0.0
 11
177.1254720846867
 21
127.0428893905192
 31
0.0
  0
ARC
  5
24E
330
1F
100
AcDbEntity
  8
1
  6
Continuous
 62
     7
370
    30
100
AcDbCircle
 10
177.1254720846867
 20
129.0428893905192
 30
0.0
 40
2.0
100
AcDbArc
 50
269.9999999999998
 51
0.0
  0
LINE
  5
24F
330
1F
100
AcDbEntity
  8
1
  6
Continuous
 62
     7
370
    30
100
AcDbLine
 10
179.1254720846867
 20
127.0428893905192
 30
0.0
 11
175.7502230295608
 21
127.0428893905192
 31
0.0
  0
LINE
  5
250
330
1F
100
AcDbEntity
  8
1
  6
Continuous
 62
     7
370
    30
100
AcDbLine
 10
179.1254720846867
 20
127.0428893905192
 30
0.0
 11
179.1254720846867
 21
129.0428893905192
 31
0.0
  0
LINE
  5
251
330
1F
100
AcDbEntity
  8
1
  6
Continuous
 62
     7
370
    30
100
AcDbLine
 10
177.593382901081
 20
129.0428893905192
 30
0.0
 11
177.593382901081
 21
150.0428893905192
 31
0.0
  0
LINE
  5
252
330
1F
100
AcDbEntity
  8
1
  6
Continuous
 62
     7
370
    30
100
AcDbLine
 10
172.6254720846867
 20
152.0428893905192
 30
0.0
 11
175.593382901081
 21
152.0428893905192
 31
0.0
  0
ARC
  5
253
330
1F
100
AcDbEntity
  8
1
  6
Continuous
 62
     7
370
    30
100
AcDbCircle
 10
175.593382901081
 20
150.0428893905192
 30
0.0
 40
2.0
100
AcDbArc
 50
0.0
 51
89.99999999999991
  0
LINE
  5
254
330
1F
100
AcDbEntity
  8
1
  6
Continuous
 62
     7
370
    30
100
AcDbLine
 10
179.1254720846867
 20
150.0428893905192
 30
0.0
 11
179.1254720846867
 21
129.0428893905192
 31
0.0
  0
LINE
  5
255
330
1F
100
AcDbEntity
  8
1
  6
Continuous
 62
     7
370
    30
100
AcDbLine
 10
177.593382901081
 20
152.0428893905192
 30
0.0
 11
177.1254720846867
 21
152.0428893905192
 31
0.0
  0
ARC
  5
256
330
1F
100
AcDbEntity
  8
1
  6
Continuous
 62
     7
370
    30
100
AcDbCircle
 10
177.1254720846867
 20
150.0428893905192
 30
0.0
 40
2.0
100
AcDbArc
 50
0.0
 51
89.99999999999991
  0
LINE
  5
257
330
1F
100
AcDbEntity
  8
1
  6
Continuous
 62
     7
370
    30
100
AcDbLine
 10
179.1254720846867
 20
152.0428893905192
 30
0.0
 11
175.593382901081
 21
152.0428893905192
 31
0.0
  0
LINE
  5
258
330
1F
100
AcDbEntity
  8
1
  6
Continuous
 62
     7
370
    30
100
AcDbLine
 10
179.1254720846867
 20
152.0428893905192
 30
0.0
 11
179.1254720846867
 21
150.1193817461231
 31
0.0
  0
MTEXT
  5
259
330
1F
100
AcDbEntity
  8
1
  6
DASHDOT
 62
     7
370
     9
100
AcDbMText
 10
175.4385381436148
 20
40.5182940516274
 30
0.0
 40
5.0
 41
35.19439439439439
 46
5.0
 71
     7
 72
     1
  1
{\fＭＳ 明朝;\T0.750000;2003.4.15}
 73
     1
 44
1.0
1001
ACAD
1000
ACAD_MTEXT_DEFINED_HEIGHT_BEGIN
1070
    46
1040
5.0
1000
ACAD_MTEXT_DEFINED_HEIGHT_END
  0
MTEXT
  5
25A
330
1F
100
AcDbEntity
  8
1
  6
Continuous
 62
     7
370
     9
100
AcDbMText
 10
75.67720090293453
 20
146.9969522002751
 30
0.0
 40
3.0
 41
13.08702375527027
 46
3.0
 71
     8
 72
     1
  1
{\fＭＳ 明朝;\W1.333333;\T0.750000;KURO}
 73
     1
 44
1.0
1001
ACAD
1000
ACAD_MTEXT_DEFINED_HEIGHT_BEGIN
1070
    46
1040
3.0
1000
ACAD_MTEXT_DEFINED_HEIGHT_END
  0
INSERT
  5
25B
330
1F
100
AcDbEntity
  8
1
  6
Continuous
 62
     7
370
     9
100
AcDbBlockReference
  2
_OPEN
 10
80.63893386862372
 20
149.4731479847227
 30
0.0
 41
4.0
 42
4.0
 43
4.0
 50
213.055984689156
  0
POLYLINE
  5
25C
330
1F
100
AcDbEntity
  8
1
  6
Continuous
 62
     7
370
     9
100
AcDb2dPolyline
 66
     1
 10
0.0
 20
0.0
 30
0.0
  0
VERTEX
  5
25D
330
25C
100
AcDbEntity
  8
1
  6
Continuous
 62
     7
370
     9
100
AcDbVertex
100
AcDb2dVertex
 10
80.63893386862372
 20
149.4731479847227
 30
0.0
  0
VERTEX
  5
25E
330
25C
100
AcDbEntity
  8
1
  6
Continuous
 62
     7
370
     9
100
AcDbVertex
100
AcDb2dVertex
 10
115.3190539004852
 20
172.0428893905192
 30
0.0
  0
VERTEX
  5
25F
330
25C
100
AcDbEntity
  8
1
  6
Continuous
 62
     7
370
     9
100
AcDbVertex
100
AcDb2dVertex
 10
131.8190539004852
 20
172.0428893905192
 30
0.0
  0
SEQEND
  5
260
330
25C
100
AcDbEntity
  8
1
  6
Continuous
 62
     7
370
     9
  0
MTEXT
  5
261
330
1F
100
AcDbEntity
  8
1
  6
Continuous
 62
     7
370
     9
100
AcDbMText
 10
115.3190539004852
 20
172.0428893905192
 30
0.0
 40
4.0
 41
27.37551051051051
 46
4.0
 71
     7
 72
     1
  1
{\fＭＳ 明朝;\W0.750000;\T0.750000;KURO マーク}
 73
     1
 44
1.0
1001
ACAD
1000
ACAD_MTEXT_DEFINED_HEIGHT_BEGIN
1070
    46
1040
4.0
1000
ACAD_MTEXT_DEFINED_HEIGHT_END
  0
INSERT
  5
267
330
1F
100
AcDbEntity
  8
0
100
AcDbBlockReference
  2
*G50
 10
0.0
 20
0.0
 30
0.0
  0
MTEXT
  5
268
330
1F
100
AcDbEntity
  8
1
  6
DASHDOT
 62
     7
370
     9
100
AcDbMText
 10
214.6777224963837
 20
35.0
 30
0.0
 40
7.0
 41
38.04363997423923
 46
7.0
 71
     7
 72
     1
  1
{\fＭＳ 明朝;\W0.857143;\T0.750000;KWS 2-30}
 73
     1
 44
1.0
1001
ACAD
1000
ACAD_MTEXT_DEFINED_HEIGHT_BEGIN
1070
    46
1040
7.0
1000
ACAD_MTEXT_DEFINED_HEIGHT_END
  0
VIEWPORT
  5
6A
330
1B
100
AcDbEntity
 67
     1
  8
0
100
AcDbViewport
 10
148.5
 20
105.0
 30
0.0
 40
297.0
 41
210.0
 68
     1
 69
     1
 12
148.5
 22
105.0
 13
0.0
 23
0.0
 14
0.5
 24
0.5
 15
0.5
 25
0.5
 16
0.0
 26
0.0
 36
1.0
 17
0.0
 27
0.0
 37
0.0
 42
50.0
 43
0.0
 44
0.0
 45
9.0
 50
0.0
 51
0.0
 72
   100
 90
   557152
  1

281
     0
 71
     1
 74
     0
110
0.0
120
0.0
130
0.0
111
1.0
121
0.0
131
0.0
112
0.0
122
1.0
132
0.0
 79
     0
146
0.0
170
     0
 61
     5
292
     1
282
     1
141
0.0
142
0.0
 63
   256
  0
ENDSEC
  0
SECTION
  2
OBJECTS
  0
DICTIONARY
  5
C
330
0
100
AcDbDictionary
281
     1
  3
ACAD_DETAILVIEWSTYLE
350
26D
  3
ACAD_GROUP
350
D
  3
ACAD_LAYOUT
350
1A
  3
ACAD_MATERIAL
350
43
  3
ACAD_MLEADERSTYLE
350
26C
  3
ACAD_MLINESTYLE
350
17
  3
ACAD_PLOTSETTINGS
350
19
  3
ACAD_PLOTSTYLENAME
350
E
  3
ACAD_SCALELIST
350
47
  3
ACAD_SECTIONVIEWSTYLE
350
26E
  3
ACAD_TABLESTYLE
350
26B
  3
ACAD_VISUALSTYLE
350
2A
  3
AcDbVariableDictionary
350
269
  0
SUN
  5
69
330
29
100
AcDbSun
 90
        1
290
     0
 63
     7
421
 16777215
 40
1.0
291
     1
 91
  2455826
 92
 54000000
292
     0
 70
     2
 71
   256
280
     1
  0
DICTIONARY
  5
26D
102
{ACAD_REACTORS
330
C
102
}
330
C
100
AcDbDictionary
281
     1
  0
DICTIONARY
  5
D
102
{ACAD_REACTORS
330
C
102
}
330
C
100
AcDbDictionary
281
     1
  0
DICTIONARY
  5
1A
102
{ACAD_REACTORS
330
C
102
}
330
C
100
AcDbDictionary
281
     1
  3
Layout1
350
1E
  3
Layout2
350
26
  3
Model
350
22
  0
DICTIONARY
  5
43
102
{ACAD_REACTORS
330
C
102
}
330
C
100
AcDbDictionary
281
     1
  3
ByBlock
350
45
  3
ByLayer
350
44
  3
Global
350
46
  0
DICTIONARY
  5
26C
102
{ACAD_REACTORS
330
C
102
}
330
C
100
AcDbDictionary
281
     1
  0
DICTIONARY
  5
17
102
{ACAD_REACTORS
330
C
102
}
330
C
100
AcDbDictionary
281
     1
  3
Standard
350
18
  0
DICTIONARY
  5
19
102
{ACAD_REACTORS
330
C
102
}
330
C
100
AcDbDictionary
281
     1
  0
ACDBDICTIONARYWDFLT
  5
E
102
{ACAD_REACTORS
330
C
102
}
330
C
100
AcDbDictionary
281
     1
  3
Normal
350
F
100
AcDbDictionaryWithDefault
340
F
  0
DICTIONARY
  5
47
102
{ACAD_REACTORS
330
C
102
}
330
C
100
AcDbDictionary
281
     1
  3
A0
350
48
  3
A1
350
49
  3
A2
350
4A
  3
A3
350
4B
  3
A4
350
4C
  3
A5
350
4D
  3
A6
350
4E
  3
A7
350
4F
  3
A8
350
50
  3
A9
350
51
  3
B0
350
52
  3
B1
350
53
  3
B2
350
54
  3
B3
350
55
  3
B4
350
56
  3
B5
350
57
  3
B6
350
58
  3
B7
350
59
  3
B8
350
5A
  3
B9
350
5B
  3
C0
350
5C
  3
C1
350
5D
  3
C2
350
5E
  3
C3
350
5F
  3
C4
350
60
  3
C5
350
61
  3
C6
350
62
  3
C7
350
63
  3
C8
350
64
  3
C9
350
65
  3
D0
350
66
  3
D1
350
67
  3
D2
350
68
  0
DICTIONARY
  5
26E
102
{ACAD_REACTORS
330
C
102
}
330
C
100
AcDbDictionary
281
     1
  0
DICTIONARY
  5
26B
102
{ACAD_REACTORS
330
C
102
}
330
C
100
AcDbDictionary
281
     1
  0
DICTIONARY
  5
2A
102
{ACAD_REACTORS
330
C
102
}
330
C
100
AcDbDictionary
281
     1
  3
2dWireframe
350
2F
  3
Basic
350
32
  3
Brighten
350
36
  3
ColorChange
350
3A
  3
Conceptual
350
34
  3
Dim
350
35
  3
EdgeColorOff
350
3D
  3
Facepattern
350
39
  3
Flat
350
2B
  3
FlatWithEdges
350
2C
  3
Gouraud
350
2D
  3
GouraudWithEdges
350
2E
  3
Hidden
350
31
  3
JitterOff
350
3B
  3
Linepattern
350
38
  3
OverhangOff
350
3C
  3
Realistic
350
33
  3
Shaded
350
42
  3
Shaded with edges
350
41
  3
Shades of Gray
350
3E
  3
Sketchy
350
3F
  3
Thicken
350
37
  3
Wireframe
350
30
  3
X-Ray
350
40
  0
DICTIONARY
  5
269
102
{ACAD_REACTORS
330
C
102
}
330
C
100
AcDbDictionary
281
     1
  3
CANNOSCALE
350
26A
  0
LAYOUT
  5
1E
102
{ACAD_REACTORS
330
1A
102
}
330
1A
100
AcDbPlotSettings
  1

  2
none_device
  4

  6

 40
0.0
 41
0.0
 42
0.0
 43
0.0
 44
0.0
 45
0.0
 46
0.0
 47
0.0
 48
0.0
 49
0.0
140
0.0
141
0.0
142
1.0
143
1.0
 70
   688
 72
     0
 73
     0
 74
     5
  7

 75
    16
 76
     0
 77
     2
 78
   300
147
1.0
148
0.0
149
0.0
100
AcDbLayout
  1
Layout1
 70
     1
 71
     1
 10
0.0
 20
0.0
 11
297.0
 21
210.0
 12
0.0
 22
0.0
 32
0.0
 14
0.0
 24
0.0
 34
0.0
 15
297.0
 25
210.0
 35
0.0
146
0.0
 13
0.0
 23
0.0
 33
0.0
 16
1.0
 26
0.0
 36
0.0
 17
0.0
 27
1.0
 37
0.0
 76
     0
330
1B
331
6A
  0
LAYOUT
  5
26
102
{ACAD_REACTORS
330
1A
102
}
330
1A
100
AcDbPlotSettings
  1

  2
none_device
  4

  6

 40
0.0
 41
0.0
 42
0.0
 43
0.0
 44
0.0
 45
0.0
 46
0.0
 47
0.0
 48
0.0
 49
0.0
140
0.0
141
0.0
142
1.0
143
1.0
 70
   688
 72
     0
 73
     0
 74
     5
  7

 75
    16
 76
     0
 77
     2
 78
   300
147
1.0
148
0.0
149
0.0
100
AcDbLayout
  1
Layout2
 70
     1
 71
     2
 10
0.0
 20
0.0
 11
0.0
 21
0.0
 12
0.0
 22
0.0
 32
0.0
 14
0.0
 24
0.0
 34
0.0
 15
0.0
 25
0.0
 35
0.0
146
0.0
 13
0.0
 23
0.0
 33
0.0
 16
1.0
 26
0.0
 36
0.0
 17
0.0
 27
1.0
 37
0.0
 76
     0
330
23
  0
LAYOUT
  5
22
102
{ACAD_REACTORS
330
1A
102
}
330
1A
100
AcDbPlotSettings
  1

  2
none_device
  4
Letter_(8.50_x_11.00_Inches)
  6

 40
6.35
 41
6.35
 42
6.35000508
 43
6.35000508
 44
215.9
 45
279.4
 46
0.0
 47
0.0
 48
0.0
 49
0.0
140
0.0
141
0.0
142
1.0
143
1.0
 70
  1712
 72
     0
 73
     0
 74
     0
  7

 75
     0
 76
     0
 77
     2
 78
   300
147
1.0
148
0.0
149
0.0
100
AcDbLayout
  1
Model
 70
     1
 71
     0
 10
0.0
 20
0.0
 11
297.0
 21
210.0
 12
0.0
 22
0.0
 32
0.0
 14
0.0
 24
0.0
 34
0.0
 15
281.9592391304345
 25
195.0
 35
0.0
146
0.0
 13
0.0
 23
0.0
 33
0.0
 16
1.0
 26
0.0
 36
0.0
 17
0.0
 27
1.0
 37
0.0
 76
     0
330
1F
331
29
  0
MATERIAL
  5
45
102
{ACAD_REACTORS
330
43
102
}
330
43
100
AcDbMaterial
  1
ByBlock
 72
     1
 94
      127
  0
MATERIAL
  5
44
102
{ACAD_REACTORS
330
43
102
}
330
43
100
AcDbMaterial
  1
ByLayer
 72
     1
 94
      127
  0
MATERIAL
  5
46
102
{ACAD_REACTORS
330
43
102
}
330
43
100
AcDbMaterial
  1
Global
 72
     1
 94
      127
  0
MLINESTYLE
  5
18
102
{ACAD_REACTORS
330
17
102
}
330
17
100
AcDbMlineStyle
  2
Standard
 70
     0
  3

 62
   256
 51
90.0
 52
90.0
 71
     2
 49
0.5
 62
   256
  6
BYLAYER
 49
-0.5
 62
   256
  6
BYLAYER
  0
ACDBPLACEHOLDER
  5
F
102
{ACAD_REACTORS
330
E
102
}
330
E
  0
SCALE
  5
48
102
{ACAD_REACTORS
330
47
102
}
330
47
100
AcDbScale
 70
     0
300
1:1
140
1.0
141
1.0
290
     1
  0
SCALE
  5
49
102
{ACAD_REACTORS
330
47
102
}
330
47
100
AcDbScale
 70
     0
300
1:2
140
1.0
141
2.0
290
     0
  0
SCALE
  5
4A
102
{ACAD_REACTORS
330
47
102
}
330
47
100
AcDbScale
 70
     0
300
1:4
140
1.0
141
4.0
290
     0
  0
SCALE
  5
4B
102
{ACAD_REACTORS
330
47
102
}
330
47
100
AcDbScale
 70
     0
300
1:5
140
1.0
141
5.0
290
     0
  0
SCALE
  5
4C
102
{ACAD_REACTORS
330
47
102
}
330
47
100
AcDbScale
 70
     0
300
1:8
140
1.0
141
8.0
290
     0
  0
SCALE
  5
4D
102
{ACAD_REACTORS
330
47
102
}
330
47
100
AcDbScale
 70
     0
300
1:10
140
1.0
141
10.0
290
     0
  0
SCALE
  5
4E
102
{ACAD_REACTORS
330
47
102
}
330
47
100
AcDbScale
 70
     0
300
1:16
140
1.0
141
16.0
290
     0
  0
SCALE
  5
4F
102
{ACAD_REACTORS
330
47
102
}
330
47
100
AcDbScale
 70
     0
300
1:20
140
1.0
141
20.0
290
     0
  0
SCALE
  5
50
102
{ACAD_REACTORS
330
47
102
}
330
47
100
AcDbScale
 70
     0
300
1:30
140
1.0
141
30.0
290
     0
  0
SCALE
  5
51
102
{ACAD_REACTORS
330
47
102
}
330
47
100
AcDbScale
 70
     0
300
1:40
140
1.0
141
40.0
290
     0
  0
SCALE
  5
52
102
{ACAD_REACTORS
330
47
102
}
330
47
100
AcDbScale
 70
     0
300
1:50
140
1.0
141
50.0
290
     0
  0
SCALE
  5
53
102
{ACAD_REACTORS
330
47
102
}
330
47
100
AcDbScale
 70
     0
300
1:100
140
1.0
141
100.0
290
     0
  0
SCALE
  5
54
102
{ACAD_REACTORS
330
47
102
}
330
47
100
AcDbScale
 70
     0
300
2:1
140
2.0
141
1.0
290
     0
  0
SCALE
  5
55
102
{ACAD_REACTORS
330
47
102
}
330
47
100
AcDbScale
 70
     0
300
4:1
140
4.0
141
1.0
290
     0
  0
SCALE
  5
56
102
{ACAD_REACTORS
330
47
102
}
330
47
100
AcDbScale
 70
     0
300
8:1
140
8.0
141
1.0
290
     0
  0
SCALE
  5
57
102
{ACAD_REACTORS
330
47
102
}
330
47
100
AcDbScale
 70
     0
300
10:1
140
10.0
141
1.0
290
     0
  0
SCALE
  5
58
102
{ACAD_REACTORS
330
47
102
}
330
47
100
AcDbScale
 70
     0
300
100:1
140
100.0
141
1.0
290
     0
  0
SCALE
  5
59
102
{ACAD_REACTORS
330
47
102
}
330
47
100
AcDbScale
 70
     0
300
1/128" = 1'-0"
140
0.0078125
141
12.0
290
     0
  0
SCALE
  5
5A
102
{ACAD_REACTORS
330
47
102
}
330
47
100
AcDbScale
 70
     0
300
1/64" = 1'-0"
140
0.015625
141
12.0
290
     0
  0
SCALE
  5
5B
102
{ACAD_REACTORS
330
47
102
}
330
47
100
AcDbScale
 70
     0
300
1/32" = 1'-0"
140
0.03125
141
12.0
290
     0
  0
SCALE
  5
5C
102
{ACAD_REACTORS
330
47
102
}
330
47
100
AcDbScale
 70
     0
300
1/16" = 1'-0"
140
0.0625
141
12.0
290
     0
  0
SCALE
  5
5D
102
{ACAD_REACTORS
330
47
102
}
330
47
100
AcDbScale
 70
     0
300
3/32" = 1'-0"
140
0.09375
141
12.0
290
     0
  0
SCALE
  5
5E
102
{ACAD_REACTORS
330
47
102
}
330
47
100
AcDbScale
 70
     0
300
1/8" = 1'-0"
140
0.125
141
12.0
290
     0
  0
SCALE
  5
5F
102
{ACAD_REACTORS
330
47
102
}
330
47
100
AcDbScale
 70
     0
300
3/16" = 1'-0"
140
0.1875
141
12.0
290
     0
  0
SCALE
  5
60
102
{ACAD_REACTORS
330
47
102
}
330
47
100
AcDbScale
 70
     0
300
1/4" = 1'-0"
140
0.25
141
12.0
290
     0
  0
SCALE
  5
61
102
{ACAD_REACTORS
330
47
102
}
330
47
100
AcDbScale
 70
     0
300
3/8" = 1'-0"
140
0.375
141
12.0
290
     0
  0
SCALE
  5
62
102
{ACAD_REACTORS
330
47
102
}
330
47
100
AcDbScale
 70
     0
300
1/2" = 1'-0"
140
0.5
141
12.0
290
     0
  0
SCALE
  5
63
102
{ACAD_REACTORS
330
47
102
}
330
47
100
AcDbScale
 70
     0
300
3/4" = 1'-0"
140
0.75
141
12.0
290
     0
  0
SCALE
  5
64
102
{ACAD_REACTORS
330
47
102
}
330
47
100
AcDbScale
 70
     0
300
1" = 1'-0"
140
1.0
141
12.0
290
     0
  0
SCALE
  5
65
102
{ACAD_REACTORS
330
47
102
}
330
47
100
AcDbScale
 70
     0
300
1-1/2" = 1'-0"
140
1.5
141
12.0
290
     0
  0
SCALE
  5
66
102
{ACAD_REACTORS
330
47
102
}
330
47
100
AcDbScale
 70
     0
300
3" = 1'-0"
140
3.0
141
12.0
290
     0
  0
SCALE
  5
67
102
{ACAD_REACTORS
330
47
102
}
330
47
100
AcDbScale
 70
     0
300
6" = 1'-0"
140
6.0
141
12.0
290
     0
  0
SCALE
  5
68
102
{ACAD_REACTORS
330
47
102
}
330
47
100
AcDbScale
 70
     0
300
1'-0" = 1'-0"
140
12.0
141
12.0
290
     0
  0
VISUALSTYLE
  5
2F
102
{ACAD_REACTORS
330
2A
102
}
330
2A
100
AcDbVisualStyle
  2
2dWireframe
 70
     4
177
     3
291
     0
 70
    58
 90
        0
176
     1
 90
        2
176
     1
 90
        0
176
     1
 90
        0
176
     1
 40
0.6
176
     1
 40
30.0
176
     1
 62
     7
420
 16777215
176
     1
 90
        1
176
     1
 90
        4
176
     1
 62
     7
176
     1
 62
   257
176
     1
 90
        1
176
     1
 90
        1
176
     1
 40
1.0
176
     1
 90
        0
176
     1
 62
   257
176
     1
 40
1.0
176
     1
 90
        1
176
     1
 90
        6
176
     1
 90
        2
176
     1
 62
     7
176
     1
 90
        5
176
     1
 90
        0
176
     1
 90
        0
176
     1
290
     0
176
     1
 90
        1
176
     1
 40
0.0
176
     1
 90
        0
176
     1
290
     1
176
     1
290
     1
176
     1
290
     0
176
     1
290
     0
176
     1
290
     0
176
     1
290
     0
176
     1
290
     0
176
     1
290
     0
176
     1
290
     0
176
     1
 90
       50
176
     1
 40
0.0
176
     1
 40
1.0
176
     1
 90
        0
176
     1
 62
    18
420
        0
176
     1
 90
       50
176
     1
 90
        3
176
     1
 62
     5
420
      255
176
     1
290
     0
176
     1
 90
       50
176
     1
 90
       50
176
     1
 90
       50
176
     1
290
     0
176
     1
 90
       50
176
     1
 62
   256
176
     0
 40
1.0
176
     0
 90
        2
176
     1
  1
strokes_ogs.tif
176
     1
290
     0
176
     1
 40
1.0
176
     1
 40
1.0
176
     1
  0
VISUALSTYLE
  5
32
102
{ACAD_REACTORS
330
2A
102
}
330
2A
100
AcDbVisualStyle
  2
Basic
 70
     7
177
     3
291
     1
 70
    58
 90
        1
176
     1
 90
        0
176
     1
 90
        1
176
     1
 90
        0
176
     1
 40
0.6
176
     1
 40
30.0
176
     1
 62
     7
420
 16777215
176
     1
 90
        0
176
     1
 90
        4
176
     1
 62
     7
176
     1
 62
   257
176
     1
 90
        1
176
     1
 90
        1
176
     1
 40
1.0
176
     1
 90
        8
176
     1
 62
     7
176
     1
 40
1.0
176
     1
 90
        1
176
     1
 90
        6
176
     1
 90
        2
176
     1
 62
     7
176
     1
 90
        5
176
     1
 90
        0
176
     1
 90
        0
176
     1
290
     0
176
     1
 90
        1
176
     1
 40
0.0
176
     1
 90
        0
176
     1
290
     0
176
     1
290
     1
176
     1
290
     1
176
     1
290
     0
176
     1
290
     0
176
     1
290
     0
176
     1
290
     0
176
     1
290
     0
176
     1
290
     0
176
     1
 90
       50
176
     1
 40
0.0
176
     1
 40
1.0
176
     1
 90
        0
176
     1
 62
    18
420
        0
176
     1
 90
       50
176
     1
 90
        3
176
     1
 62
     5
420
      255
176
     1
290
     0
176
     1
 90
       50
176
     1
 90
       50
176
     1
 90
       50
176
     1
290
     0
176
     1
 90
       50
176
     1
 62
   256
176
     0
 40
1.0
176
     0
 90
        2
176
     1
  1
strokes_ogs.tif
176
     1
290
     0
176
     1
 40
1.0
176
     1
 40
1.0
176
     1
  0
VISUALSTYLE
  5
36
102
{ACAD_REACTORS
330
2A
102
}
330
2A
100
AcDbVisualStyle
  2
Brighten
 70
    12
177
     3
291
     1
 70
    58
 90
        2
176
     1
 90
        2
176
     1
 90
        0
176
     1
 90
        0
176
     1
 40
0.6
176
     1
 40
30.0
176
     1
 62
     7
420
 16777215
176
     1
 90
        1
176
     1
 90
        4
176
     1
 62
     7
176
     1
 62
   257
176
     1
 90
        1
176
     1
 90
        1
176
     1
 40
1.0
176
     1
 90
        8
176
     1
 62
     7
176
     1
 40
1.0
176
     1
 90
        1
176
     1
 90
        6
176
     1
 90
        2
176
     1
 62
     7
176
     1
 90
        5
176
     1
 90
        0
176
     1
 90
        0
176
     1
290
     0
176
     1
 90
        1
176
     1
 40
50.0
176
     1
 90
        0
176
     1
290
     0
176
     1
290
     1
176
     1
290
     1
176
     1
290
     0
176
     1
290
     0
176
     1
290
     0
176
     1
290
     0
176
     1
290
     0
176
     1
290
     0
176
     1
 90
       50
176
     1
 40
0.0
176
     1
 40
1.0
176
     1
 90
        0
176
     1
 62
    18
420
        0
176
     1
 90
       50
176
     1
 90
        3
176
     1
 62
     5
420
      255
176
     1
290
     0
176
     1
 90
       50
176
     1
 90
       50
176
     1
 90
       50
176
     1
290
     0
176
     1
 90
       50
176
     1
 62
   256
176
     0
 40
1.0
176
     0
 90
        2
176
     1
  1
strokes_ogs.tif
176
     1
290
     0
176
     1
 40
1.0
176
     1
 40
1.0
176
     1
  0
VISUALSTYLE
  5
3A
102
{ACAD_REACTORS
330
2A
102
}
330
2A
100
AcDbVisualStyle
  2
ColorChange
 70
    16
177
     3
291
     1
 70
    58
 90
        2
176
     1
 90
        2
176
     1
 90
        3
176
     1
 90
        0
176
     1
 40
0.6
176
     1
 40
30.0
176
     1
 62
     8
420
  8421504
176
     1
 90
        1
176
     1
 90
        4
176
     1
 62
     7
176
     1
 62
   257
176
     1
 90
        1
176
     1
 90
        1
176
     1
 40
1.0
176
     1
 90
        8
176
     1
 62
     8
420
  8421504
176
     1
 40
1.0
176
     1
 90
        1
176
     1
 90
        6
176
     1
 90
        2
176
     1
 62
     7
176
     1
 90
        5
176
     1
 90
        0
176
     1
 90
        0
176
     1
290
     0
176
     1
 90
        1
176
     1
 40
0.0
176
     1
 90
        0
176
     1
290
     0
176
     1
290
     1
176
     1
290
     1
176
     1
290
     0
176
     1
290
     0
176
     1
290
     0
176
     1
290
     0
176
     1
290
     0
176
     1
290
     0
176
     1
 90
       50
176
     1
 40
0.0
176
     1
 40
1.0
176
     1
 90
        0
176
     1
 62
    18
420
        0
176
     1
 90
       50
176
     1
 90
        3
176
     1
 62
     5
420
      255
176
     1
290
     0
176
     1
 90
       50
176
     1
 90
       50
176
     1
 90
       50
176
     1
290
     0
176
     1
 90
       50
176
     1
 62
   256
176
     0
 40
1.0
176
     0
 90
        2
176
     1
  1
strokes_ogs.tif
176
     1
290
     0
176
     1
 40
1.0
176
     1
 40
1.0
176
     1
  0
VISUALSTYLE
  5
34
102
{ACAD_REACTORS
330
2A
102
}
330
2A
100
AcDbVisualStyle
  2
Conceptual
 70
     9
177
     3
291
     0
 70
    58
 90
        3
176
     1
 90
        2
176
     1
 90
        0
176
     1
 90
        0
176
     1
 40
0.6
176
     1
 40
30.0
176
     1
 62
     7
420
 16777215
176
     1
 90
        2
176
     1
 90
        2
176
     1
 62
     7
176
     1
 62
   257
176
     1
 90
        1
176
     1
 90
        1
176
     1
 40
179.0
176
     1
 90
        8
176
     1
 62
     7
176
     1
 40
1.0
176
     1
 90
        1
176
     1
 90
        6
176
     1
 90
        2
176
     1
 62
     7
176
     1
 90
        3
176
     1
 90
        0
176
     1
 90
        0
176
     1
290
     0
176
     1
 90
        1
176
     1
 40
0.0
176
     1
 90
        0
176
     1
290
     0
176
     1
290
     1
176
     1
290
     1
176
     1
290
     0
176
     1
290
     0
176
     1
290
     0
176
     1
290
     0
176
     1
290
     0
176
     1
290
     0
176
     1
 90
       50
176
     1
 40
0.0
176
     1
 40
1.0
176
     1
 90
        0
176
     1
 62
    18
420
        0
176
     1
 90
       50
176
     1
 90
        3
176
     1
 62
     5
420
      255
176
     1
290
     0
176
     1
 90
       50
176
     1
 90
       50
176
     1
 90
       50
176
     1
290
     0
176
     1
 90
       50
176
     1
 62
   256
176
     0
 40
1.0
176
     0
 90
        2
176
     1
  1
strokes_ogs.tif
176
     1
290
     0
176
     1
 40
1.0
176
     1
 40
1.0
176
     1
  0
VISUALSTYLE
  5
35
102
{ACAD_REACTORS
330
2A
102
}
330
2A
100
AcDbVisualStyle
  2
Dim
 70
    11
177
     3
291
     1
 70
    58
 90
        2
176
     1
 90
        2
176
     1
 90
        0
176
     1
 90
        0
176
     1
 40
0.6
176
     1
 40
30.0
176
     1
 62
     7
420
 16777215
176
     1
 90
        1
176
     1
 90
        4
176
     1
 62
     7
176
     1
 62
   257
176
     1
 90
        1
176
     1
 90
        1
176
     1
 40
1.0
176
     1
 90
        8
176
     1
 62
     7
176
     1
 40
1.0
176
     1
 90
        1
176
     1
 90
        6
176
     1
 90
        2
176
     1
 62
     7
176
     1
 90
        5
176
     1
 90
        0
176
     1
 90
        0
176
     1
290
     0
176
     1
 90
        1
176
     1
 40
-50.0
176
     1
 90
        0
176
     1
290
     0
176
     1
290
     1
176
     1
290
     1
176
     1
290
     0
176
     1
290
     0
176
     1
290
     0
176
     1
290
     0
176
     1
290
     0
176
     1
290
     0
176
     1
 90
       50
176
     1
 40
0.0
176
     1
 40
1.0
176
     1
 90
        0
176
     1
 62
    18
420
        0
176
     1
 90
       50
176
     1
 90
        3
176
     1
 62
     5
420
      255
176
     1
290
     0
176
     1
 90
       50
176
     1
 90
       50
176
     1
 90
       50
176
     1
290
     0
176
     1
 90
       50
176
     1
 62
   256
176
     0
 40
1.0
176
     0
 90
        2
176
     1
  1
strokes_ogs.tif
176
     1
290
     0
176
     1
 40
1.0
176
     1
 40
1.0
176
     1
  0
VISUALSTYLE
  5
3D
102
{ACAD_REACTORS
330
2A
102
}
330
2A
100
AcDbVisualStyle
  2
EdgeColorOff
 70
    22
177
     3
291
     1
 70
    58
 90
        2
176
     0
 90
        2
176
     0
 90
        0
176
     0
 90
        0
176
     0
 40
0.6
176
     0
 40
30.0
176
     0
 62
     7
420
 16777215
176
     0
 90
        1
176
     0
 90
        4
176
     0
 62
     7
176
     0
 62
   257
176
     0
 90
        1
176
     0
 90
        1
176
     0
 40
1.0
176
     0
 90
        8
176
     2
 62
     7
176
     0
 40
1.0
176
     0
 90
        1
176
     0
 90
        6
176
     0
 90
        2
176
     0
 62
     7
176
     0
 90
        5
176
     0
 90
        0
176
     0
 90
        0
176
     0
290
     0
176
     0
 90
        1
176
     0
 40
0.0
176
     0
 90
        0
176
     0
290
     0
176
     0
290
     1
176
     0
290
     1
176
     0
290
     0
176
     0
290
     0
176
     0
290
     0
176
     0
290
     0
176
     0
290
     0
176
     0
290
     0
176
     0
 90
       50
176
     0
 40
0.0
176
     0
 40
1.0
176
     0
 90
        0
176
     0
 62
    18
420
        0
176
     0
 90
       50
176
     0
 90
        3
176
     0
 62
     5
420
      255
176
     0
290
     0
176
     0
 90
       50
176
     0
 90
       50
176
     0
 90
       50
176
     0
290
     0
176
     0
 90
       50
176
     0
 62
   256
176
     0
 40
1.0
176
     0
 90
        2
176
     0
  1
strokes_ogs.tif
176
     0
290
     0
176
     0
 40
1.0
176
     0
 40
1.0
176
     0
  0
VISUALSTYLE
  5
39
102
{ACAD_REACTORS
330
2A
102
}
330
2A
100
AcDbVisualStyle
  2
Facepattern
 70
    15
177
     3
291
     1
 70
    58
 90
        2
176
     1
 90
        2
176
     1
 90
        0
176
     1
 90
        0
176
     1
 40
0.6
176
     1
 40
30.0
176
     1
 62
     7
420
 16777215
176
     1
 90
        1
176
     1
 90
        4
176
     1
 62
     7
176
     1
 62
   257
176
     1
 90
        1
176
     1
 90
        1
176
     1
 40
1.0
176
     1
 90
        8
176
     1
 62
     7
176
     1
 40
1.0
176
     1
 90
        1
176
     1
 90
        6
176
     1
 90
        2
176
     1
 62
     7
176
     1
 90
        5
176
     1
 90
        0
176
     1
 90
        0
176
     1
290
     0
176
     1
 90
        1
176
     1
 40
0.0
176
     1
 90
        0
176
     1
290
     0
176
     1
290
     1
176
     1
290
     1
176
     1
290
     0
176
     1
290
     0
176
     1
290
     0
176
     1
290
     0
176
     1
290
     0
176
     1
290
     0
176
     1
 90
       50
176
     1
 40
0.0
176
     1
 40
1.0
176
     1
 90
        0
176
     1
 62
    18
420
        0
176
     1
 90
       50
176
     1
 90
        3
176
     1
 62
     5
420
      255
176
     1
290
     0
176
     1
 90
       50
176
     1
 90
       50
176
     1
 90
       50
176
     1
290
     0
176
     1
 90
       50
176
     1
 62
   256
176
     0
 40
1.0
176
     0
 90
        2
176
     1
  1
strokes_ogs.tif
176
     1
290
     0
176
     1
 40
1.0
176
     1
 40
1.0
176
     1
  0
VISUALSTYLE
  5
2B
102
{ACAD_REACTORS
330
2A
102
}
330
2A
100
AcDbVisualStyle
  2
Flat
 70
     0
177
     3
291
     1
 70
    58
 90
        2
176
     1
 90
        1
176
     1
 90
        1
176
     1
 90
        2
176
     1
 40
0.6
176
     1
 40
30.0
176
     1
 62
     7
420
 16777215
176
     1
 90
        0
176
     1
 90
        0
176
     1
 62
     7
176
     1
 62
   257
176
     1
 90
        1
176
     1
 90
        1
176
     1
 40
1.0
176
     1
 90
        8
176
     1
 62
     7
176
     1
 40
1.0
176
     1
 90
        1
176
     1
 90
        6
176
     1
 90
        2
176
     1
 62
     7
176
     1
 90
        5
176
     1
 90
        0
176
     1
 90
        0
176
     1
290
     0
176
     1
 90
       13
176
     1
 40
0.0
176
     1
 90
        0
176
     1
290
     0
176
     1
290
     1
176
     1
290
     1
176
     1
290
     0
176
     1
290
     0
176
     1
290
     0
176
     1
290
     0
176
     1
290
     0
176
     1
290
     0
176
     1
 90
       50
176
     1
 40
0.0
176
     1
 40
1.0
176
     1
 90
        0
176
     1
 62
    18
420
        0
176
     1
 90
       50
176
     1
 90
        3
176
     1
 62
     5
420
      255
176
     1
290
     0
176
     1
 90
       50
176
     1
 90
       50
176
     1
 90
       50
176
     1
290
     0
176
     1
 90
       50
176
     1
 62
   256
176
     0
 40
1.0
176
     0
 90
        2
176
     1
  1
strokes_ogs.tif
176
     1
290
     0
176
     1
 40
1.0
176
     1
 40
1.0
176
     1
  0
VISUALSTYLE
  5
2C
102
{ACAD_REACTORS
330
2A
102
}
330
2A
100
AcDbVisualStyle
  2
FlatWithEdges
 70
     1
177
     3
291
     1
 70
    58
 90
        2
176
     1
 90
        1
176
     1
 90
        1
176
     1
 90
        2
176
     1
 40
0.6
176
     1
 40
30.0
176
     1
 62
     7
420
 16777215
176
     1
 90
        1
176
     1
 90
        0
176
     1
 62
     7
176
     1
 62
   257
176
     1
 90
        1
176
     1
 90
        1
176
     1
 40
1.0
176
     1
 90
        0
176
     1
 62
   257
176
     1
 40
1.0
176
     1
 90
        1
176
     1
 90
        6
176
     1
 90
        2
176
     1
 62
     7
176
     1
 90
        5
176
     1
 90
        0
176
     1
 90
        0
176
     1
290
     0
176
     1
 90
       13
176
     1
 40
0.0
176
     1
 90
        0
176
     1
290
     0
176
     1
290
     1
176
     1
290
     1
176
     1
290
     0
176
     1
290
     0
176
     1
290
     0
176
     1
290
     0
176
     1
290
     0
176
     1
290
     0
176
     1
 90
       50
176
     1
 40
0.0
176
     1
 40
1.0
176
     1
 90
        0
176
     1
 62
    18
420
        0
176
     1
 90
       50
176
     1
 90
        3
176
     1
 62
     5
420
      255
176
     1
290
     0
176
     1
 90
       50
176
     1
 90
       50
176
     1
 90
       50
176
     1
290
     0
176
     1
 90
       50
176
     1
 62
   256
176
     0
 40
1.0
176
     0
 90
        2
176
     1
  1
strokes_ogs.tif
176
     1
290
     0
176
     1
 40
1.0
176
     1
 40
1.0
176
     1
  0
VISUALSTYLE
  5
2D
102
{ACAD_REACTORS
330
2A
102
}
330
2A
100
AcDbVisualStyle
  2
Gouraud
 70
     2
177
     3
291
     1
 70
    58
 90
        2
176
     1
 90
        2
176
     1
 90
        1
176
     1
 90
        2
176
     1
 40
0.6
176
     1
 40
30.0
176
     1
 62
     7
420
 16777215
176
     1
 90
        0
176
     1
 90
        0
176
     1
 62
     7
176
     1
 62
   257
176
     1
 90
        1
176
     1
 90
        1
176
     1
 40
1.0
176
     1
 90
        0
176
     1
 62
     7
176
     1
 40
1.0
176
     1
 90
        1
176
     1
 90
        6
176
     1
 90
        2
176
     1
 62
     7
176
     1
 90
        5
176
     1
 90
        0
176
     1
 90
        0
176
     1
290
     0
176
     1
 90
       13
176
     1
 40
0.0
176
     1
 90
        0
176
     1
290
     0
176
     1
290
     1
176
     1
290
     1
176
     1
290
     0
176
     1
290
     0
176
     1
290
     0
176
     1
290
     0
176
     1
290
     0
176
     1
290
     0
176
     1
 90
       50
176
     1
 40
0.0
176
     1
 40
1.0
176
     1
 90
        0
176
     1
 62
    18
420
        0
176
     1
 90
       50
176
     1
 90
        3
176
     1
 62
     5
420
      255
176
     1
290
     0
176
     1
 90
       50
176
     1
 90
       50
176
     1
 90
       50
176
     1
290
     0
176
     1
 90
       50
176
     1
 62
   256
176
     0
 40
1.0
176
     0
 90
        2
176
     1
  1
strokes_ogs.tif
176
     1
290
     0
176
     1
 40
1.0
176
     1
 40
1.0
176
     1
  0
VISUALSTYLE
  5
2E
102
{ACAD_REACTORS
330
2A
102
}
330
2A
100
AcDbVisualStyle
  2
GouraudWithEdges
 70
     3
177
     3
291
     1
 70
    58
 90
        2
176
     1
 90
        2
176
     1
 90
        1
176
     1
 90
        2
176
     1
 40
0.6
176
     1
 40
30.0
176
     1
 62
     7
420
 16777215
176
     1
 90
        1
176
     1
 90
        0
176
     1
 62
     7
176
     1
 62
   257
176
     1
 90
        1
176
     1
 90
        1
176
     1
 40
1.0
176
     1
 90
        0
176
     1
 62
   257
176
     1
 40
1.0
176
     1
 90
        1
176
     1
 90
        6
176
     1
 90
        2
176
     1
 62
     7
176
     1
 90
        5
176
     1
 90
        0
176
     1
 90
        0
176
     1
290
     0
176
     1
 90
       13
176
     1
 40
0.0
176
     1
 90
        0
176
     1
290
     0
176
     1
290
     1
176
     1
290
     1
176
     1
290
     0
176
     1
290
     0
176
     1
290
     0
176
     1
290
     0
176
     1
290
     0
176
     1
290
     0
176
     1
 90
       50
176
     1
 40
0.0
176
     1
 40
1.0
176
     1
 90
        0
176
     1
 62
    18
420
        0
176
     1
 90
       50
176
     1
 90
        3
176
     1
 62
     5
420
      255
176
     1
290
     0
176
     1
 90
       50
176
     1
 90
       50
176
     1
 90
       50
176
     1
290
     0
176
     1
 90
       50
176
     1
 62
   256
176
     0
 40
1.0
176
     0
 90
        2
176
     1
  1
strokes_ogs.tif
176
     1
290
     0
176
     1
 40
1.0
176
     1
 40
1.0
176
     1
  0
VISUALSTYLE
  5
31
102
{ACAD_REACTORS
330
2A
102
}
330
2A
100
AcDbVisualStyle
  2
Hidden
 70
     6
177
     3
291
     0
 70
    58
 90
        1
176
     1
 90
        2
176
     1
 90
        2
176
     1
 90
        0
176
     1
 40
0.6
176
     1
 40
30.0
176
     1
 62
     7
420
 16777215
176
     1
 90
        2
176
     1
 90
        2
176
     1
 62
     7
176
     1
 62
   257
176
     1
 90
        2
176
     1
 90
        1
176
     1
 40
40.0
176
     1
 90
        0
176
     1
 62
   257
176
     1
 40
1.0
176
     1
 90
        1
176
     1
 90
        6
176
     1
 90
        2
176
     1
 62
     7
176
     1
 90
        3
176
     1
 90
        0
176
     1
 90
        0
176
     1
290
     0
176
     1
 90
        1
176
     1
 40
0.0
176
     1
 90
        0
176
     1
290
     0
176
     1
290
     1
176
     1
290
     1
176
     1
290
     0
176
     1
290
     0
176
     1
290
     0
176
     1
290
     0
176
     1
290
     0
176
     1
290
     0
176
     1
 90
       50
176
     1
 40
0.0
176
     1
 40
1.0
176
     1
 90
        0
176
     1
 62
    18
420
        0
176
     1
 90
       50
176
     1
 90
        3
176
     1
 62
     5
420
      255
176
     1
290
     0
176
     1
 90
       50
176
     1
 90
       50
176
     1
 90
       50
176
     1
290
     0
176
     1
 90
       50
176
     1
 62
   256
176
     0
 40
1.0
176
     0
 90
        2
176
     1
  1
strokes_ogs.tif
176
     1
290
     0
176
     1
 40
1.0
176
     1
 40
1.0
176
     1
  0
VISUALSTYLE
  5
3B
102
{ACAD_REACTORS
330
2A
102
}
330
2A
100
AcDbVisualStyle
  2
JitterOff
 70
    20
177
     3
291
     1
 70
    58
 90
        2
176
     0
 90
        2
176
     0
 90
        0
176
     0
 90
        0
176
     0
 40
0.6
176
     0
 40
30.0
176
     0
 62
     7
420
 16777215
176
     0
 90
        1
176
     0
 90
        4
176
     0
 62
     7
176
     0
 62
   257
176
     0
 90
        1
176
     0
 90
        1
176
     0
 40
1.0
176
     0
 90
       10
176
     2
 62
     7
176
     0
 40
1.0
176
     0
 90
        1
176
     0
 90
        6
176
     0
 90
        2
176
     0
 62
     7
176
     0
 90
        5
176
     0
 90
        0
176
     0
 90
        0
176
     0
290
     0
176
     0
 90
        1
176
     0
 40
0.0
176
     0
 90
        0
176
     0
290
     0
176
     0
290
     1
176
     0
290
     1
176
     0
290
     0
176
     0
290
     0
176
     0
290
     0
176
     0
290
     0
176
     0
290
     0
176
     0
290
     0
176
     0
 90
       50
176
     0
 40
0.0
176
     0
 40
1.0
176
     0
 90
        0
176
     0
 62
    18
420
        0
176
     0
 90
       50
176
     0
 90
        3
176
     0
 62
     5
420
      255
176
     0
290
     0
176
     0
 90
       50
176
     0
 90
       50
176
     0
 90
       50
176
     0
290
     0
176
     0
 90
       50
176
     0
 62
   256
176
     0
 40
1.0
176
     0
 90
        2
176
     0
  1
strokes_ogs.tif
176
     0
290
     0
176
     0
 40
1.0
176
     0
 40
1.0
176
     0
  0
VISUALSTYLE
  5
38
102
{ACAD_REACTORS
330
2A
102
}
330
2A
100
AcDbVisualStyle
  2
Linepattern
 70
    14
177
     3
291
     1
 70
    58
 90
        2
176
     1
 90
        2
176
     1
 90
        0
176
     1
 90
        0
176
     1
 40
0.6
176
     1
 40
30.0
176
     1
 62
     7
420
 16777215
176
     1
 90
        1
176
     1
 90
        4
176
     1
 62
     7
176
     1
 62
   257
176
     1
 90
        7
176
     1
 90
        7
176
     1
 40
1.0
176
     1
 90
        8
176
     1
 62
     7
176
     1
 40
1.0
176
     1
 90
        1
176
     1
 90
        6
176
     1
 90
        2
176
     1
 62
     7
176
     1
 90
        5
176
     1
 90
        0
176
     1
 90
        0
176
     1
290
     0
176
     1
 90
        1
176
     1
 40
0.0
176
     1
 90
        0
176
     1
290
     0
176
     1
290
     1
176
     1
290
     1
176
     1
290
     0
176
     1
290
     0
176
     1
290
     0
176
     1
290
     0
176
     1
290
     0
176
     1
290
     0
176
     1
 90
       50
176
     1
 40
0.0
176
     1
 40
1.0
176
     1
 90
        0
176
     1
 62
    18
420
        0
176
     1
 90
       50
176
     1
 90
        3
176
     1
 62
     5
420
      255
176
     1
290
     0
176
     1
 90
       50
176
     1
 90
       50
176
     1
 90
       50
176
     1
290
     0
176
     1
 90
       50
176
     1
 62
   256
176
     0
 40
1.0
176
     0
 90
        2
176
     1
  1
strokes_ogs.tif
176
     1
290
     0
176
     1
 40
1.0
176
     1
 40
1.0
176
     1
  0
VISUALSTYLE
  5
3C
102
{ACAD_REACTORS
330
2A
102
}
330
2A
100
AcDbVisualStyle
  2
OverhangOff
 70
    21
177
     3
291
     1
 70
    58
 90
        2
176
     0
 90
        2
176
     0
 90
        0
176
     0
 90
        0
176
     0
 40
0.6
176
     0
 40
30.0
176
     0
 62
     7
420
 16777215
176
     0
 90
        1
176
     0
 90
        4
176
     0
 62
     7
176
     0
 62
   257
176
     0
 90
        1
176
     0
 90
        1
176
     0
 40
1.0
176
     0
 90
        9
176
     2
 62
     7
176
     0
 40
1.0
176
     0
 90
        1
176
     0
 90
        6
176
     0
 90
        2
176
     0
 62
     7
176
     0
 90
        5
176
     0
 90
        0
176
     0
 90
        0
176
     0
290
     0
176
     0
 90
        1
176
     0
 40
0.0
176
     0
 90
        0
176
     0
290
     0
176
     0
290
     1
176
     0
290
     1
176
     0
290
     0
176
     0
290
     0
176
     0
290
     0
176
     0
290
     0
176
     0
290
     0
176
     0
290
     0
176
     0
 90
       50
176
     0
 40
0.0
176
     0
 40
1.0
176
     0
 90
        0
176
     0
 62
    18
420
        0
176
     0
 90
       50
176
     0
 90
        3
176
     0
 62
     5
420
      255
176
     0
290
     0
176
     0
 90
       50
176
     0
 90
       50
176
     0
 90
       50
176
     0
290
     0
176
     0
 90
       50
176
     0
 62
   256
176
     0
 40
1.0
176
     0
 90
        2
176
     0
  1
strokes_ogs.tif
176
     0
290
     0
176
     0
 40
1.0
176
     0
 40
1.0
176
     0
  0
VISUALSTYLE
  5
33
102
{ACAD_REACTORS
330
2A
102
}
330
2A
100
AcDbVisualStyle
  2
Realistic
 70
     8
177
     3
291
     0
 70
    58
 90
        2
176
     1
 90
        3
176
     1
 90
        0
176
     1
 90
        2
176
     1
 40
0.6
176
     1
 40
30.0
176
     1
 62
     7
420
 16777215
176
     1
 90
        0
176
     1
 90
        0
176
     1
 62
     7
176
     1
 62
   257
176
     1
 90
        1
176
     1
 90
        1
176
     1
 40
1.0
176
     1
 90
        8
176
     1
 62
   257
176
     1
 40
1.0
176
     1
 90
        1
176
     1
 90
        6
176
     1
 90
        2
176
     1
 62
     7
176
     1
 90
        3
176
     1
 90
        0
176
     1
 90
        0
176
     1
290
     0
176
     1
 90
       13
176
     1
 40
0.0
176
     1
 90
        0
176
     1
290
     0
176
     1
290
     1
176
     1
290
     1
176
     1
290
     0
176
     1
290
     0
176
     1
290
     0
176
     1
290
     0
176
     1
290
     0
176
     1
290
     0
176
     1
 90
       50
176
     1
 40
0.0
176
     1
 40
1.0
176
     1
 90
        0
176
     1
 62
    18
420
        0
176
     1
 90
       50
176
     1
 90
        3
176
     1
 62
     5
420
      255
176
     1
290
     0
176
     1
 90
       50
176
     1
 90
       50
176
     1
 90
       50
176
     1
290
     0
176
     1
 90
       50
176
     1
 62
   256
176
     0
 40
1.0
176
     0
 90
        2
176
     1
  1
strokes_ogs.tif
176
     1
290
     0
176
     1
 40
1.0
176
     1
 40
1.0
176
     1
  0
VISUALSTYLE
  5
42
102
{ACAD_REACTORS
330
2A
102
}
330
2A
100
AcDbVisualStyle
  2
Shaded
 70
    27
177
     3
291
     0
 70
    58
 90
        2
176
     1
 90
        2
176
     1
 90
        1
176
     1
 90
        2
176
     1
 40
0.6
176
     1
 40
30.0
176
     1
 62
     7
420
 16777215
176
     1
 90
        0
176
     1
 90
        4
176
     1
 62
     7
176
     1
 62
   257
176
     1
 90
        1
176
     1
 90
        1
176
     1
 40
1.0
176
     1
 90
        8
176
     1
 62
   257
176
     1
 40
1.0
176
     1
 90
        1
176
     1
 90
        6
176
     1
 90
        2
176
     1
 62
     8
420
  7895160
176
     1
 90
        3
176
     1
 90
        0
176
     1
 90
        0
176
     1
290
     0
176
     1
 90
        5
176
     1
 40
0.0
176
     1
 90
        0
176
     1
290
     0
176
     1
290
     1
176
     1
290
     1
176
     1
290
     0
176
     1
290
     0
176
     1
290
     0
176
     1
290
     0
176
     1
290
     0
176
     1
290
     0
176
     1
 90
       50
176
     1
 40
0.0
176
     1
 40
1.0
176
     1
 90
        0
176
     1
 62
    18
420
        0
176
     1
 90
       50
176
     1
 90
        3
176
     1
 62
     5
420
      255
176
     1
290
     0
176
     1
 90
       50
176
     1
 90
       50
176
     1
 90
       50
176
     1
290
     0
176
     1
 90
       50
176
     1
 62
   256
176
     0
 40
1.0
176
     0
 90
        2
176
     1
  1
strokes_ogs.tif
176
     1
290
     0
176
     1
 40
1.0
176
     1
 40
1.0
176
     1
  0
VISUALSTYLE
  5
41
102
{ACAD_REACTORS
330
2A
102
}
330
2A
100
AcDbVisualStyle
  2
Shaded with edges
 70
    26
177
     3
291
     0
 70
    58
 90
        2
176
     1
 90
        2
176
     1
 90
        1
176
     1
 90
        2
176
     1
 40
0.6
176
     1
 40
30.0
176
     1
 62
     7
420
 16777215
176
     1
 90
        1
176
     1
 90
       10
176
     1
 62
     7
176
     1
 62
   257
176
     1
 90
        2
176
     1
 90
        1
176
     1
 40
1.0
176
     1
 90
        8
176
     1
 62
   257
176
     1
 40
1.0
176
     1
 90
        1
176
     1
 90
        6
176
     1
 90
        2
176
     1
 62
     7
176
     1
 90
        3
176
     1
 90
        0
176
     1
 90
        0
176
     1
290
     0
176
     1
 90
        5
176
     1
 40
0.0
176
     1
 90
        0
176
     1
290
     0
176
     1
290
     1
176
     1
290
     1
176
     1
290
     0
176
     1
290
     0
176
     1
290
     0
176
     1
290
     0
176
     1
290
     0
176
     1
290
     0
176
     1
 90
       50
176
     1
 40
0.0
176
     1
 40
1.0
176
     1
 90
        0
176
     1
 62
    18
420
        0
176
     1
 90
       50
176
     1
 90
        3
176
     1
 62
     5
420
      255
176
     1
290
     0
176
     1
 90
       50
176
     1
 90
       50
176
     1
 90
       50
176
     1
290
     0
176
     1
 90
       50
176
     1
 62
   256
176
     0
 40
1.0
176
     0
 90
        2
176
     1
  1
strokes_ogs.tif
176
     1
290
     0
176
     1
 40
1.0
176
     1
 40
1.0
176
     1
  0
VISUALSTYLE
  5
3E
102
{ACAD_REACTORS
330
2A
102
}
330
2A
100
AcDbVisualStyle
  2
Shades of Gray
 70
    23
177
     3
291
     0
 70
    58
 90
        2
176
     1
 90
        2
176
     1
 90
        3
176
     1
 90
        0
176
     1
 40
0.6
176
     1
 40
30.0
176
     1
 62
     7
420
 16777215
176
     1
 90
        2
176
     1
 90
        2
176
     1
 62
     7
176
     1
 62
     7
176
     1
 90
        1
176
     1
 90
        1
176
     1
 40
40.0
176
     1
 90
        8
176
     1
 62
     7
176
     1
 40
1.0
176
     1
 90
        1
176
     1
 90
        6
176
     1
 90
        2
176
     1
 62
     7
176
     1
 90
        3
176
     1
 90
        0
176
     1
 90
        0
176
     1
290
     0
176
     1
 90
        1
176
     1
 40
0.0
176
     1
 90
        0
176
     1
290
     0
176
     1
290
     1
176
     1
290
     1
176
     1
290
     0
176
     1
290
     0
176
     1
290
     0
176
     1
290
     0
176
     1
290
     0
176
     1
290
     0
176
     1
 90
       50
176
     1
 40
0.0
176
     1
 40
1.0
176
     1
 90
        0
176
     1
 62
    18
420
        0
176
     1
 90
       50
176
     1
 90
        3
176
     1
 62
     5
420
      255
176
     1
290
     0
176
     1
 90
       50
176
     1
 90
       50
176
     1
 90
       50
176
     1
290
     0
176
     1
 90
       50
176
     1
 62
   256
176
     0
 40
1.0
176
     0
 90
        2
176
     1
  1
strokes_ogs.tif
176
     1
290
     0
176
     1
 40
1.0
176
     1
 40
1.0
176
     1
  0
VISUALSTYLE
  5
3F
102
{ACAD_REACTORS
330
2A
102
}
330
2A
100
AcDbVisualStyle
  2
Sketchy
 70
    24
177
     3
291
     0
 70
    58
 90
        1
176
     1
 90
        2
176
     1
 90
        2
176
     1
 90
        0
176
     1
 40
0.6
176
     1
 40
30.0
176
     1
 62
     7
420
 16777215
176
     1
 90
        2
176
     1
 90
        2
176
     1
 62
     7
176
     1
 62
     7
176
     1
 90
        1
176
     1
 90
        1
176
     1
 40
40.0
176
     1
 90
       11
176
     1
 62
     7
176
     1
 40
1.0
176
     1
 90
        1
176
     1
 90
        6
176
     1
 90
        2
176
     1
 62
     7
176
     1
 90
        6
176
     1
 90
        0
176
     1
 90
        0
176
     1
290
     0
176
     1
 90
        1
176
     1
 40
0.0
176
     1
 90
        0
176
     1
290
     0
176
     1
290
     1
176
     1
290
     1
176
     1
290
     0
176
     1
290
     0
176
     1
290
     0
176
     1
290
     0
176
     1
290
     0
176
     1
290
     0
176
     1
 90
       50
176
     1
 40
0.0
176
     1
 40
1.0
176
     1
 90
        0
176
     1
 62
    18
420
        0
176
     1
 90
       50
176
     1
 90
        3
176
     1
 62
     5
420
      255
176
     1
290
     0
176
     1
 90
       50
176
     1
 90
       50
176
     1
 90
       50
176
     1
290
     0
176
     1
 90
       50
176
     1
 62
   256
176
     0
 40
1.0
176
     0
 90
        2
176
     1
  1
strokes_ogs.tif
176
     1
290
     0
176
     1
 40
1.0
176
     1
 40
1.0
176
     1
  0
VISUALSTYLE
  5
37
102
{ACAD_REACTORS
330
2A
102
}
330
2A
100
AcDbVisualStyle
  2
Thicken
 70
    13
177
     3
291
     1
 70
    58
 90
        2
176
     1
 90
        2
176
     1
 90
        0
176
     1
 90
        0
176
     1
 40
0.6
176
     1
 40
30.0
176
     1
 62
     7
420
 16777215
176
     1
 90
        1
176
     1
 90
        4
176
     1
 62
     7
176
     1
 62
   257
176
     1
 90
        1
176
     1
 90
        1
176
     1
 40
1.0
176
     1
 90
       12
176
     1
 62
     7
176
     1
 40
1.0
176
     1
 90
        1
176
     1
 90
        6
176
     1
 90
        2
176
     1
 62
     7
176
     1
 90
        5
176
     1
 90
        0
176
     1
 90
        0
176
     1
290
     0
176
     1
 90
        1
176
     1
 40
0.0
176
     1
 90
        0
176
     1
290
     0
176
     1
290
     1
176
     1
290
     1
176
     1
290
     0
176
     1
290
     0
176
     1
290
     0
176
     1
290
     0
176
     1
290
     0
176
     1
290
     0
176
     1
 90
       50
176
     1
 40
0.0
176
     1
 40
1.0
176
     1
 90
        0
176
     1
 62
    18
420
        0
176
     1
 90
       50
176
     1
 90
        3
176
     1
 62
     5
420
      255
176
     1
290
     0
176
     1
 90
       50
176
     1
 90
       50
176
     1
 90
       50
176
     1
290
     0
176
     1
 90
       50
176
     1
 62
   256
176
     0
 40
1.0
176
     0
 90
        2
176
     1
  1
strokes_ogs.tif
176
     1
290
     0
176
     1
 40
1.0
176
     1
 40
1.0
176
     1
  0
VISUALSTYLE
  5
30
102
{ACAD_REACTORS
330
2A
102
}
330
2A
100
AcDbVisualStyle
  2
Wireframe
 70
     5
177
     3
291
     0
 70
    58
 90
        0
176
     1
 90
        2
176
     1
 90
        0
176
     1
 90
        0
176
     1
 40
0.6
176
     1
 40
30.0
176
     1
 62
     7
420
 16777215
176
     1
 90
        1
176
     1
 90
        4
176
     1
 62
     7
176
     1
 62
   257
176
     1
 90
        1
176
     1
 90
        1
176
     1
 40
1.0
176
     1
 90
        0
176
     1
 62
   257
176
     1
 40
1.0
176
     1
 90
        1
176
     1
 90
        6
176
     1
 90
        2
176
     1
 62
     7
176
     1
 90
        3
176
     1
 90
        0
176
     1
 90
        0
176
     1
290
     0
176
     1
 90
        1
176
     1
 40
0.0
176
     1
 90
        0
176
     1
290
     0
176
     1
290
     1
176
     1
290
     1
176
     1
290
     0
176
     1
290
     0
176
     1
290
     0
176
     1
290
     0
176
     1
290
     0
176
     1
290
     0
176
     1
 90
       50
176
     1
 40
0.0
176
     1
 40
1.0
176
     1
 90
        0
176
     1
 62
    18
420
        0
176
     1
 90
       50
176
     1
 90
        3
176
     1
 62
     5
420
      255
176
     1
290
     0
176
     1
 90
       50
176
     1
 90
       50
176
     1
 90
       50
176
     1
290
     0
176
     1
 90
       50
176
     1
 62
   256
176
     0
 40
1.0
176
     0
 90
        2
176
     1
  1
strokes_ogs.tif
176
     1
290
     0
176
     1
 40
1.0
176
     1
 40
1.0
176
     1
  0
VISUALSTYLE
  5
40
102
{ACAD_REACTORS
330
2A
102
}
330
2A
100
AcDbVisualStyle
  2
X-Ray
 70
    25
177
     3
291
     0
 70
    58
 90
        2
176
     1
 90
        2
176
     1
 90
        1
176
     1
 90
        1
176
     1
 40
0.5
176
     1
 40
30.0
176
     1
 62
     7
420
 16777215
176
     1
 90
        1
176
     1
 90
        0
176
     1
 62
     7
176
     1
 62
   257
176
     1
 90
        1
176
     1
 90
        1
176
     1
 40
1.0
176
     1
 90
        8
176
     1
 62
     7
176
     1
 40
1.0
176
     1
 90
        1
176
     1
 90
        6
176
     1
 90
        2
176
     1
 62
     7
176
     1
 90
        3
176
     1
 90
        0
176
     1
 90
        0
176
     1
290
     0
176
     1
 90
       13
176
     1
 40
0.0
176
     1
 90
        0
176
     1
290
     0
176
     1
290
     1
176
     1
290
     1
176
     1
290
     0
176
     1
290
     0
176
     1
290
     0
176
     1
290
     0
176
     1
290
     0
176
     1
290
     0
176
     1
 90
       50
176
     1
 40
0.0
176
     1
 40
1.0
176
     1
 90
        0
176
     1
 62
    18
420
        0
176
     1
 90
       50
176
     1
 90
        3
176
     1
 62
     5
420
      255
176
     1
290
     0
176
     1
 90
       50
176
     1
 90
       50
176
     1
 90
       50
176
     1
290
     0
176
     1
 90
       50
176
     1
 62
   256
176
     0
 40
1.0
176
     0
 90
        2
176
     1
  1
strokes_ogs.tif
176
     1
290
     0
176
     1
 40
1.0
176
     1
 40
1.0
176
     1
  0
DICTIONARYVAR
  5
26A
102
{ACAD_REACTORS
330
269
102
}
330
269
100
DictionaryVariables
280
     0
  1
1:1
  0
ENDSEC
  0
EOF
